当前位置:
首页 » 喜剧片 » 迷与狂

迷与狂 Unforgettable Blast 2015 1080p WEBRip x264 AC3-SeeHD 中英

《迷与狂》海报

◎译 名 迷与狂

◎片 名 Unforgettable Blast

◎年 代 2015-05-22(中国大陆)

◎国 家 中国大陆

◎类 别 喜剧

◎语 言 汉语普通话

◎字 幕 中英字幕

◎IMDB评分 N/A

◎IMDB链接 N/A

◎文件格式 X264 + AC3

◎视频尺寸 1920x816

◎文件大小 1CD 1.81GiB

◎片 长 95分钟

◎导 演 颜廷录 Tinglu Yan

◎主 演    姜潮 Jo   叶肃

蒋雪鸣 Xue Ming Jiang   张一闲

王厦     Xia Wang       黄大中

杨清     Qing Yang       李雨馨

骆佳     Jialuo       傅总

蒋毅泓     Yihong Jiang       华哥

雷迪     Di Lei       张小丹

李桂莲     Guilian Li       王大婶

钟世岩     Shiyan Zhong       市场张经理

李靖     Jing Li       经理

于珂伊     Keyi Yu       招聘专员

马慧     Hui Ma       职员

刘婷驿     Tingyi Liu       小姐

王东伟     Dongwei Wang       劫匪

杨可心     Kexin Yang       叶肃爸

郭惠政     Huizheng Guo       叶肃妈

韩一思     Yisi Han       王大婶儿子

郑招凡     Zhaofan Zheng       土豪小平头

迷与狂剧情介绍:

  叶肃(姜潮 饰),张一闲(蒋雪鸣 饰),黄大中(王厦 饰)为了爱情与梦想,毕业后决定留在大城市打拼,他们相信凭借自己的学历和聪明才智一定会闯出一片天地,于是开始了投简历,面试,被拒,再投简历,再面试……的生活。现实是残酷无奈的,虽然找到了工作,但却不是想象中的那样,被老板骂,被同事调侃,早出晚归却依然不能够让老板满意……但是他们依然意气风发,斗志昂扬,提案,重组团队,加班陪客户,乘坐末班公交车……当一切看似走上正轨,却出现各种变故,叶肃被富二代女朋友劈腿并为了尊严辞职,张一闲被炒鱿鱼,黄大中为了友情裸辞……

  在经过应聘、上班、辞职等一系列现实与内心的挣扎后,三位好基友决定自己决定自己的前途,于是化身“奇葩甘蔗男”开始了创业之路……

迷与狂拍摄花絮
1. 2015年5月公映的电影《迷与狂》是由浙江本真影视发行有限公司出品并摄制、由颜廷录编剧导演的反应当下年轻人在现实与梦想之间,事业与爱情之间的困惑和迷惘的黑色幽默式喜剧。
2. 《迷与狂》是由浙江本真影视发行有限公司出品并摄制、由颜廷录编剧导演的一部反应当下年轻人在现实与梦想之间,事业与爱情之间的困惑和迷惘的黑色幽默式喜剧。这部影片主要讲诉了以三个大学毕业生初入社会的经历,以及90后的困惑与成长
 

迷与狂幕后制作
本真为大道,优秀自风云。2015年5月公映的电影《迷与狂》是由浙江本真影视发行有限公司出品并摄制、由颜廷录编剧导演的反应当下年轻人在现实与梦想之间,事业与爱情之间的困惑和迷惘的黑色幽默式喜剧。
本真影视自2012年发起成立开始,董事长卢瑛女士就坚持公司发展施行制片人制度、以及集制作、营销、发行于一体的战略导向。同时给予本真影视“致力于成为中国喜剧电影优秀制作商”的明确市场定位,成为中国首家以专业生产制作喜剧电影的影视公司。
卢瑛董事长作为出品人和总制片人,对现在的电影市场有着深刻的了解,对未来电影市场的方向也有她明晰的判断。她多次表示:“我们公司销售的是电影,不是什么名演员,对名演员我只采取相信而不迷信的态度,所以我宁愿制作出合格的让观众喜爱的电影产品,也不愿意把钱砸在名演员身上粗制滥造出欺骗观众的电影。在我眼里,能把剧本中角色创造性地演绎到位能被观众喜爱的就是名演员,就是好电影”。
有了正确的思路,卢瑛女士正着手准备在2015年9月投资拍摄讽刺性喜剧电影《反腐时代》,她相信,这部依然由颜廷录编剧导演的喜剧作品也一样会得到更多观众的喜爱。
 

迷与狂制作公司
1. 浙江本真影视发行有限公司


迷与狂发行公司
1. 剧麦(天津)电影策划
2. 浙江本真影视发行有限公司

General

Format                  : Matroska

Format version           : Version 4 / Version 2

File size                : 1.81 GiB

Duration               : 1h 35mn

Overall bit rate           : 2 708 Kbps

Encoded date              : UTC 2015-06-18 02:45:40

Writing application         : mkvmerge v7.1.0 ('Good Love') 32bit built on Jul 27 2014 12:59:18

Writing library            : libebml v1.3.0 + libmatroska v1.4.1

DURATION               : 01:35:43.700000000

NUMBER_OF_FRAMES           : 164907

NUMBER_OF_BYTES            : 459495972

_STATISTICS_WRITING_APP     : mkvmerge v7.1.0 ('Good Love') 32bit built on Jul 27 2014 12:59:18

_STATISTICS_WRITING_DATE_UTC   : 2015-06-18 02:45:40

_STATISTICS_TAGS           : BPS DURATION NUMBER_OF_FRAMES NUMBER_OF_BYTES

Video

ID                   : 1

Format                  : AVC

Format/Info             : Advanced Video Codec

Format profile           : [email protected]

Format settings, CABAC       : Yes

Format settings, ReFrames     : 3 frames

Codec ID               : V_MPEG4/ISO/AVC

Duration               : 1h 35mn

Bit rate               : 2 014 Kbps

Width                 : 1 920 pixels

Height                  : 816 pixels

Display aspect ratio       : 2.35:1

Frame rate mode            : Constant

Frame rate               : 25.000 fps

Color space             : YUV

Chroma subsampling          : 4:2:0

Bit depth                : 8 bits

Scan type                : Progressive

Bits/(Pixel*Frame)          : 0.051

Stream size             : 1.35 GiB (74%)

Default                 : Yes

Forced                  : No

Audio

ID                   : 2

Format                  : AC-3

Format/Info             : Audio Coding 3

Mode extension           : CM (complete main)

Format settings, Endianness    : Big

Codec ID               : A_AC3

Duration               : 1h 35mn

Bit rate mode             : Constant

Bit rate               : 640 Kbps

Channel(s)               : 2 channels

Channel positions         : Front: L R

Sampling rate             : 44.1 KHz

Bit depth                : 16 bits

Compression mode           : Lossy

Stream size             : 438 MiB (24%)

Default                 : Yes

Forced                  : No

迷与狂影片截图:

迷与狂电影下载:

提示:推荐使用BitComet、Utorrent、QQ旋风、迅雷下载迷与狂。喜欢在线看的朋友可以把种子上传到百度网盘、115网盘,离线下载完手机电脑都可以在线看。

迷与狂电影评论

更多精彩电影