当前位置:
首页 » 惊悚片 » 严惩

[严惩]Catch.Hell.2014.1080p.BluRay.x264.DTS-RARBG 8.30G

《严惩》海报

◎译 名 严惩

◎片 名 Catch Hell

◎年 代 2014

◎国 家 美国

◎类 别 剧情/惊悚

◎语 言 英语

◎字 幕 N/A

◎IMDB评分 5.1/10 from 340 users

◎文件格式 x264 + DTS

◎视频尺寸 1920 x 1080

◎文件大小 1CD 8.30 GiB

◎片 长 1h 37mn

◎导 演 瑞恩·菲利普 Ryan Phillippe

◎主 演 瑞恩·菲利普 Ryan Phillippe ...Reagan Pearce

Tig Notaro ...Careen

Joyful Drake ...Diane

詹姆斯·杜蒙特 James DuMont ...Tony Cunningham

Stephen Louis Grush ...Junior

Hakim Callender ...Hotel Security Guard

拉斯·拉索 Russ Russo ...Tim Remmit

Ian Barford ...Mike

Ramona Tyler ...The Stewardess

Heidi Brook Myers ...Rhonda

Michael Boyne ...Howard Kyle

Forrest Forte ...David

Skipper Landry ...Bartender

Jamie Normand ...Girl 2

Katie Sills ...Hotel Girl #2

严惩剧情介绍:

  闯荡好莱坞失败的演员里根·皮尔斯为工作在去往路易斯安那州的一个小镇什里夫波特路上,被歹徒绑架至一个沼泽地附近的小屋,歹徒折磨并威胁他用推特账户发布并上传妥协博文,他改如何逃脱困境?

Video

ID  : 1

Format  : AVC

Format/Info  : Advanced Video Codec

Format profile  : [email protected]

Format settings, CABAC  : Yes

Format settings, ReFrames  : 4 frames

Codec ID  : V_MPEG4/ISO/AVC

Duration  : 1h 37mn

Bit rate  : 11.5 Mbps

Width  : 1 920 pixels

Height  : 1 080 pixels

Display aspect ratio  : 16:9

Frame rate mode  : Constant

Frame rate  : 23.976 fps

Color space  : YUV

Chroma subsampling  : 4:2:0

Bit depth  : 8 bits

Scan type  : Progressive

Bits/(Pixel*Frame)  : 0.231

Stream size  : 7.62 GiB (92%)

Title  : Catch.Hell.2014.1080p.BluRay.x264.DTS-RARBG

Writing library  : x264 core 142 r2479 dd79a61

Encoding settings  : cabac=1 / ref=4 / deblock=1:-1:-1 / analyse=0x3:0x133 / me=umh / subme=8 / psy=1 / psy_rd=1.00:0.15 / mixed_ref=1 / me_range=16 / chroma_me=1 / trellis=2 / 8x8dct=1 / cqm=0 / deadzone=21,11 / fast_pskip=1 / chroma_qp_offset=-3 / threads=12 / lookahead_threads=2 / sliced_threads=0 / nr=0 / decimate=1 / interlaced=0 / bluray_compat=0 / constrained_intra=0 / bframes=3 / b_pyramid=2 / b_adapt=2 / b_bias=0 / direct=3 / weightb=1 / open_gop=0 / weightp=2 / keyint=240 / keyint_min=24 / scenecut=40 / intra_refresh=0 / rc_lookahead=50 / rc=abr / mbtree=1 / bitrate=11500 / ratetol=1.0 / qcomp=0.60 / qpmin=0 / qpmax=69 / qpstep=4 / vbv_maxrate=62500 / vbv_bufsize=78125 / nal_hrd=none / filler=0 / ip_ratio=1.40 / aq=1:1.00

Default  : Yes

Forced  : No

Color primaries  : BT.709

Transfer characteristics  : BT.709

Matrix coefficients  : BT.709 Audio

ID  : 2

Format  : DTS

Format/Info  : Digital Theater Systems

Mode  : 16

Format settings, Endianness  : Big

Codec ID  : A_DTS

Duration  : 1h 37mn

Bit rate mode  : Constant

Bit rate  : 768 Kbps

Channel(s)  : 6 channels

Channel positions  : Front: L C R, Side: L R, LFE

Sampling rate  : 48.0 KHz

Bit depth  : 16 bits

Compression mode  : Lossy

Stream size  : 534 MiB (6%)

Title  : Catch.Hell.2014.1080p.BluRay.x264.DTS-RARBG

Language  : English

Default  : Yes

Forced  : No

Menu

00:00:00.000  : :Chapter 1

00:11:10.086  : :Chapter 2

00:20:52.960  : :Chapter 3

00:33:05.817  : :Chapter 4

00:43:56.050  : :Chapter 5

00:50:55.719  : :Chapter 6

00:57:30.947  : :Chapter 7

01:06:18.683  : :Chapter 8

01:16:36.217  : :Chapter 9

01:23:07.482  : :Chapter 10

01:29:11.805  : :Chapter 11

01:33:34.317  : :Chapter 12

《严惩》剧照-1 《严惩》剧照-2

《严惩》剧照-3 《严惩》剧照-4

《严惩》剧照-5 《严惩》剧照-6

严惩电影下载:

提示:推荐使用BitComet、Utorrent、QQ旋风、迅雷下载严惩。喜欢在线看的朋友可以把种子上传到百度网盘、115网盘,离线下载完手机电脑都可以在线看。

严惩电影评论

更多精彩电影