当前位置:
首页 » 惊悚片 » 七月寒潮

[七月寒潮]Cold.in.July.2014.1080p.BluRay.x264.DTS-RARBG 11.09G[快播种子]

《七月寒潮》海报

◎译 名 七月寒潮

◎片 名 Cold in July

◎年 代 2014

◎国 家 美国/法国

◎类 别 剧情/惊悚

◎语 言 英语

◎字 幕 N/A

◎IMDB评分 7.2/10 from 4,528 users

◎文件格式 X264 + DTS

◎视频尺寸 1920 x 800

◎文件大小 1CD 11.09 GiB

◎片 长 110 Min

◎导 演 吉姆·米柯 Jim Mickle

◎主 演 迈克尔·C·豪尔 Michael C. Hall ....Richard Dane

山姆·夏普德 Sam Shepard ....Russel

凡妮莎·肖 Vinessa Shaw ....Ann Dane

唐·约翰逊 Don Johnson ....Jim Bob

瓦耶特·鲁塞尔 Wyatt Russell ....Freddy

Nick Damici ....Ray Price

Lanny Flaherty ....Jack Crow

Kristin Griffith ....Kay

劳伦·雷托 Laurent Rejto ....Perp

Happy Anderson ....Ted

Lily Autumn Page ....Girl in Restaurant

Tim Lajcik ....Mex

Kris Eivers ....Detective

Joe Lanza ....Officer

Brogan Hall ....Jordan Dane

Heidi K. Eklund ....Teacher

Greg Russell Cook ....Skinny Man

Soraya Butler ....Female Officer

贝蒂娜·斯凯 Bettina Skye ....Drunk Girlfriend

Rachel Zeiger-Haag ....Valerie

Joseph K. Bevilacqua ....Coroner

Joseph Anthony Jerez ....Big Man

Ken Holmes ....Burglar

Joseph Harrell ....Officer Kevin

Linda Kutrubes ....Local

Willoughby Pyle ....Boy on Playground

Brianda Agramonte ....Young Latina girl on tape

罗丝玛丽·霍华德 Rosemary Howard ....Frame Shop pedestrian (uncredited)

Casey Roberts ....(uncredited)

Wayne Pyle ....Man who bumps into Richard

Robert Burke Warren ....FBI Agent Timothy Glen

七月寒潮剧情介绍:

  出于自卫,理查德射杀了侵入自己家中的陌生人。但是他不得不面对死者父亲的残忍报复。然而不久,敌对双方就发现事实并不像表面展现的那幺简单,他们不得不联合起来面对黑暗的真相。

Video

ID  : 1

Format  : AVC

Format/Info  : Advanced Video Codec

Format profile  : [email protected]

Format settings, CABAC  : Yes

Format settings, ReFrames  : 5 frames

Codec ID  : V_MPEG4/ISO/AVC

Duration  : 1h 50mn

Bit rate  : 12.9 Mbps

Width  : 1 920 pixels

Height  : 800 pixels

Display aspect ratio  : 2.40:1

Frame rate mode  : Constant

Frame rate  : 23.976 fps

Color space  : YUV

Chroma subsampling  : 4:2:0

Bit depth  : 8 bits

Scan type  : Progressive

Bits/(Pixel*Frame)  : 0.350

Stream size  : 9.71 GiB (88%)

Writing library  : x264 core 142 r2431+42 c69a006 tMod [[email protected]:2:0 X86_64]

Encoding settings  : cabac=1 / ref=5 / deblock=1:-3:-3 / analyse=0x3:0x113 / me=umh / subme=11 / psy=1 / fade_compensate=0.00 / psy_rd=0.90:0.05 / mixed_ref=1 / me_range=48 / chroma_me=1 / trellis=2 / 8x8dct=1 / cqm=0 / deadzone=21,11 / fast_pskip=0 / chroma_qp_offset=-3 / threads=18 / lookahead_threads=3 / sliced_threads=0 / nr=0 / decimate=0 / interlaced=0 / bluray_compat=0 / constrained_intra=0 / fgo=0 / bframes=9 / b_pyramid=2 / b_adapt=2 / b_bias=0 / direct=3 / weightb=1 / open_gop=0 / weightp=2 / keyint=240 / keyint_min=24 / scenecut=40 / intra_refresh=0 / rc_lookahead=40 / rc=2pass / mbtree=0 / bitrate=12900 / ratetol=1.0 / qcomp=0.70 / qpmin=0:0:0 / qpmax=69:69:69 / qpstep=4 / cplxblur=20.0 / qblur=0.5 / vbv_maxrate=50000 / vbv_bufsize=40000 / nal_hrd=none / filler=0 / ip_ratio=1.20 / pb_ratio=1.20 / aq=4:1.05 / aq-sensitivity=10.00 / aq-factor=1.00:1.00:1.00 / aq2=0 / aq3=0

Language  : English

Default  : Yes

Forced  : No

Audio

ID  : 3

Format  : DTS

Format/Info  : Digital Theater Systems

Mode  : 16

Format settings, Endianness  : Big

Codec ID  : A_DTS

Duration  : 1h 50mn

Bit rate mode  : Constant

Bit rate  : 1 509 Kbps

Channel(s)  : 6 channels

Channel positions  : Front: L C R, Side: L R, LFE

Sampling rate  : 48.0 KHz

Bit depth  : 24 bits

Compression mode  : Lossy

Stream size  : 1.16 GiB (10%)

Language  : English

Default  : Yes

Forced  : No

Text

ID  : 2

Format  : PGS

Muxing mode  : zlib

Codec ID  : S_HDMV/PGS

Codec ID/Info  : The same subtitle format used on BDs/HD-DVDs

Language  : English

Default  : Yes

Forced  : No

七月寒潮电影下载:

提示:由于该资源受到用户投诉或版权方要求,已经停止链接分享

七月寒潮电影评论

更多精彩电影