当前位置:
首页 » 惊悚片 » 亲切的金子

[亲切的金子]Sympathy for Lady Vengeance.2005.720p.Bluray.x264.DTS 韩粤双语[BT种子下载]

亲切的金子/金子的复仇「朴赞郁“复仇三部曲”(我要复仇/老男孩/亲切的金子)第三部 挑战你的承受极限」

Sympathy for Lady Vengeance 2005 720p Bluray x264 DTS-WiKi

《亲切的金子》海报

◎中文 名 亲切的金子

◎片 名 Sympathy For Lady Vengeance

◎年 代 2005

◎国 家 韩国

◎类 别 惊悚/犯罪

◎语 言 韩语

◎字 幕 中文/英文

◎IMDB评分 7.6/10 (472 votes)

◎片 长 115 Min

◎导 演 朴赞郁 Chan-wook Park

◎主 演 Hye-jeong Kang

Bu-seon Kim

Seung-Shin Lee

李英爱 Lee Young Ah

裴斗娜 Bae Doo na

刘智泰 Ji-tae Yu

Shi-hoo Kim

Dal-su Oh

Kwang-rok Oh

宋康昊 Kang-ho Song

亲切的金子剧情介绍:

◇ 故事:监狱里走出复仇女神

  金子(李英爱 饰)拥有美丽的外貌,却在 20 岁花样年华的时候,因犯罪而被捕入狱。在监狱里,金子因热心帮助狱友,还得到了“亲切的金子小姐”的昵称。终于度过了 13 年的牢狱生活,当年的美丽少女,已变成了现在性感的成熟女人。出狱后,金子立即展开一连串精密的报复计划,而她要报复的人是当年让她成为罪犯的白老师(崔岷植 饰)。

  那些在狱中,曾受到金子帮助的人们,也一一的协助金子展开她的各项报复行动,她们成了一股庞大的复仇大军。 13 年前,金子与白老师之间,究竟是什幺关系,报复的理由又是什幺?金子真的会成功吗?这一连串的谜题又该如何终了?

◇ 看点:李英爱与“复仇三部曲”

  《亲切的金子》是朴赞郁导演“复仇三部曲”的最后一部复仇剧,前两次《我要复仇》和《老男孩》都用了宋江浩和崔岷植等男演员。这一次,他把最后一部复仇剧设定为女性的复仇,要在自己复仇三部曲结下完美的句号。而且,这个女性复仇女神,她直接为李英爱设计,我们将在影片里看到她走出《大长今》的善良,变成一个充满杀气的复仇女神。讲述 30 多岁的女人为消不去的恨而报复的这部电影,像《大长今》的长今一样给观众留下善良印象的李英爱,要变成报复的化身登场,她的表演相当值得期待。

  对于导演朴赞郁来说,这部《亲切的金子》是他代表作“复仇三部曲”的终结篇,熟悉的影迷曾在《我要复仇》和《老男孩》中,领略到了他那种怪异的黑色风格。在国际各大电影节上得到认可的他,势必是希望借着这“复仇”的最后一击,要冲击 2005 年的威尼斯电影节,在他这个“野心”下本片的水准绝对不会令人失望。

◇ 点评:不要玩弄善良的美女

  很多影迷很早就被李英爱《春逝》的唯美恋情感动过,现在在亚洲火热的《大长今》也成就她美丽善良的形象。《亲切的金子》却要变成一个复仇的魔女,这部电影成了她事业生涯中最冒险的选择,她是否可以把那种隐藏在骨子里的仇恨表现出来,甚至走上明年戛纳的红地毯成为世界的明星?

  本片除了李英爱的话题外,另一个非常期待的是,影片的“复仇”到底是怎样的精彩?我们在《我要复仇》中看到一个人为了复仇不惜付出一切的恐惧,《老男孩》则说了一个最阴险可怕的复仇者,本片又将把“复仇女神”带进怎样的复仇世界呢?

  此外,对于很多男人来说,《亲切的金子》让他们看到了善良美女也有可怕的一面,玩弄欺骗她们的时候,真要小心她们把仇恨埋在心底,某一天杀上门来把你玩尽杀绝。

Sympathy.for.Lady.Vengeance.2005.720p.Bluray.x264.DTS-WiKi.mkv

Format : Matroska

File size : 6.56 GiB

Duration : 1h 55mn

Overall bit rate : 8 160 Kbps

Encoded date : UTC 2009-10-07 11:41:23

Writing application : mkvmerge v2.9.7 ('Tenderness') built on Jul 1 2009 18:43:35

Writing library : libebml v0.7.7 + libmatroska v0.8.1

Video #1

ID : 1

Format : AVC

Format/Info : Advanced Video Codec

Format profile : [email protected]

Format settings, CABAC : Yes

Format settings, ReFrames : 10 frames

Muxing mode : Container [email protected]

Codec ID : V_MPEG4/ISO/AVC

Duration : 1h 55mn

Bit rate : 6 104 Kbps

Nominal bit rate : 6 266 Kbps

Width : 1 280 pixels

Height : 544 pixels

Display aspect ratio : 2.35:1

Frame rate : 24.000 fps

Resolution : 24 bits

Colorimetry : 4:2:0

Scan type : Progressive

Bits/(Pixel*Frame) : 0.365

Stream size : 4.91 GiB (75%)

Writing library : x264 core 68 r1183M f21daff

Language : English

Audio #2

ID : 2

Format : DTS

Format/Info : Digital Theater Systems

Codec ID : A_DTS

Duration : 1h 55mn

Bit rate mode : Constant

Bit rate : 1 510 Kbps

Channel(s) : 6 channels

Channel positions : Front: L C R, Surround: L R, LFE

Sampling rate : 48.0 KHz

Resolution : 16 bits

Stream size : 1.21 GiB (19%)

Title : KOR

Language : Korean

Audio #3

ID : 3

Format : AC-3

Format/Info : Audio Coding 3

Codec ID : A_AC3

Duration : 1h 55mn

Bit rate mode : Constant

Bit rate : 384 Kbps

Channel(s) : 2 channels

Channel positions : L R

Sampling rate : 48.0 KHz

Stream size : 316 MiB (5%)

Title : CHI

Language : Chinese

亲切的金子电影下载:

提示:推荐使用BitComet、Utorrent、QQ旋风、迅雷下载亲切的金子。喜欢在线看的朋友可以把种子上传到百度网盘、115网盘,离线下载完手机电脑都可以在线看。

亲切的金子电影评论

更多精彩电影