当前位置:
首页 » 喜剧片 » 大病

大病/爱情昏迷中 The.Big.Sick.1080p.WEB-DL.DD5.1

《大病》海报

◎译 名 大病/爱情昏迷中(台)/情人眼里巴基斯(港)

◎片 名 The Big Sick

◎年 代 2017

◎产 地 美国

◎类 别 喜剧/爱情

◎语 言 英语/乌尔都语

◎上映日期 2017-01-20(圣丹斯电影节)/2017-07-14(美国)

◎IMDb评分 8.1/10 from 13,665 users

◎豆瓣评分 8.3/10 from 588 users

◎片 长 120分钟

◎导 演 迈克尔·修华特 Michael Showalter

◎主 演 库梅尔·南贾尼 Kumail Nanjiani

佐伊·卡赞 Zoe Kazan

霍利·亨特 Holly Hunter

雷·罗马诺 Ray Romano

阿努潘·凯尔 Anupam Kher

泽诺比娅·谢罗夫 Zenobia Shroff

阿迪勒·阿赫塔尔 Adeel Akhtar

博·伯翰 Bo Burnham

艾迪·布莱恩特 Aidy Bryant

库尔特·布劳诺勒 Kurt Braunohler

维拉.洛弗尔 Vella Lovell

迈拉·卢克利希亚·泰勒 Myra Lucretia Taylor

杰里米·萨默斯 Jeremy Shamos

大卫·艾兰·格里尔 David Alan Grier

艾德·赫伯斯特曼 Ed Herbstman

琳达·伊蒙 Linda Emond

马修·卡德罗普 Matthew Cardarople

大病剧情介绍:

  基于库梅尔·南贾尼与艾米丽·V·戈登之间的真实恋爱经历改编。生于巴基斯坦的喜剧演员库梅尔·南贾尼(库梅尔·南贾尼本人),在自己的一场单口喜剧表演之后,认识了正在读研究生的艾米丽·V·戈登(佐伊·卡赞)。两人之间的一夜情慢慢发展为正式的交往,而库梅尔的家庭则要求他遵循巴基斯坦的包办婚姻传统,与家里介绍的穆斯林女性结婚。在艾米丽遭受一场突如其来的疾病并进入昏迷状态之后,库梅尔与艾米丽的父母一起面对这场危机,并不得不与在家庭与自己追求的美式生活之间作出选择。

Video

ID : 1

Format : AVC

Format/Info : Advanced Video Codec

Format profile : High@L4

Format settings, CABAC : Yes

Format settings, ReFrames : 4 frames

Codec ID : V_MPEG4/ISO/AVC

Duration : 2 h 0 min

Bit rate : 4 754 kb/s

Width : 1 904 pixels

Height : 1 032 pixels

Display aspect ratio : 1.85:1

Frame rate mode : Constant

Frame rate : 23.976 (24000/1001) FPS

Color space : YUV

Chroma subsampling : 4:2:0

Bit depth : 8 bits

Scan type : Progressive

Bits/(Pixel*Frame) : 0.101

Stream size : 4.00 GiB (91%)

Title : The.Big.Sick.2017.1080p.WEB-DL.DD5.1.H264-FGT

Language : English

Default : Yes

Forced : No

Color range : Limited

Color primaries : BT.709

Transfer characteristics : BT.709

Matrix coefficients : BT.709

Audio

ID : 2

Format : AC-3

Format/Info : Audio Coding 3

Format settings, Endianness : Big

Codec ID : A_AC3

Duration : 2 h 0 min

Bit rate mode : Constant

Bit rate : 384 kb/s

Channel(s) : 6 channels

Channel positions : Front: L C R, Side: L R, LFE

Sampling rate : 48.0 kHz

Frame rate : 31.250 FPS (1536 spf)

Bit depth : 16 bits

Compression mode : Lossy

Delay relative to video : -42 ms

Stream size : 330 MiB (7%)

Title : The.Big.Sick.2017.1080p.WEB-DL.DD5.1.H264-FGT

Language : English

Service kind : Complete Main

Default : Yes

Forced : No

Text #1

ID : 3

Format : UTF-8

Codec ID : S_TEXT/UTF8

Codec ID/Info : UTF-8 Plain Text

Title : FORCED

Language : English

Default : Yes

Forced : Yes

Text #2

ID : 4

Format : UTF-8

Codec ID : S_TEXT/UTF8

Codec ID/Info : UTF-8 Plain Text

Language : English

Default : No

Forced : No

Menu

00:00:00.000 : en:1

00:07:57.000 : en:2

00:16:30.000 : en:3

00:23:33.000 : en:4

00:32:25.000 : en:5

00:39:54.000 : en:6

00:47:06.000 : en:7

00:55:05.000 : en:8

01:02:50.000 : en:9

01:10:15.000 : en:10

01:18:39.000 : en:11

01:26:43.000 : en:12

01:33:55.000 : en:13

01:42:16.000 : en:14

01:50:02.000 : en:15

01:57:46.000 : en:16

《大病》剧照-1《大病》剧照-2

《大病》剧照-3《大病》剧照-4

《大病》剧照-5《大病》剧照-6

大病电影下载:

提示:推荐使用BitComet、Utorrent、QQ旋风、迅雷下载大病。喜欢在线看的朋友可以把种子上传到百度网盘、115网盘,离线下载完手机电脑都可以在线看。

大病电影评论

更多精彩电影