当前位置:
首页 » 剧情片 » 垫底辣妹

垫底辣妹/奇迹补习社 Flying.Colours.720p

《垫底辣妹》海报

◎译 名 垫底辣妹/奇迹补习社(港)/奇迹补习班/垫底女生

◎片 名 ビリギャル

◎年 代 2015

◎产 地 日本

◎类 别 剧情/家庭

◎语 言 日语

◎上映日期 2015-05-01(日本)/2016-04-14(中国大陆)

◎IMDb评分 7.5/10 from 1,444 users

◎豆瓣评分 8.1/10 from 140,537 users

◎片 长 117分钟

◎导 演 土井裕泰 Nobuhiro Doi

◎主 演 有村架纯 Kasumi Arimura

伊藤淳史 Atsushi Itô

吉田羊 Yô Yoshida

田中哲司 Tetsushi Tanaka

野村周平 Shuhei Nomura

安田显 Ken Yasuda

阿部菜渚美 Nanami Abe

中村靖日 Yasuhi Nakamura

矢岛健一 Kenichi Yajima

峰村理惠 Rie Minemura

垫底辣妹剧情介绍:

  长相甜美的高中女孩工藤沙耶加(有村架纯 饰)在家并不受父亲待见,父亲一心要把弟弟培养成棒球手,而疏于对女儿们的呵护。沙耶加所在的高中有内部升学的制度,因此她终日和小姐妹们吃喝玩乐,学习掉到了全年级倒数第一也毫不为意。温柔勤苦的妈妈(吉田羊 饰)经常被校方找去说教,她为女儿的未来焦虑万分,因此将沙耶加送到了坪田(伊藤淳史 饰)所开办的补习班。经过水平测试,沙耶加实际只有小学四年级的水平,不过开朗自信的坪田不以为意,他以特有的方式打开女孩的心防,两人很快成为好朋友。在坪田的帮助下,沙耶加队学习的态度逐渐浓厚,后来更立下了考取庆应大学的宏愿。这是丑小鸭绝地逆袭的真实故事--

  本片根据《年级倒数第一的辣妹一年内偏差值提升40以上并考入庆应大学的故事》改编,该书取材自真人真事,由担任影片女主角原型小林沙耶加的私塾教师坪田信贵撰写。

◎获奖记录

第39届日本电影学院奖 (2016)

最佳女主角(提名) 有村架纯

最佳男配角(提名) 伊藤淳史

最佳女配角(提名) 吉田羊

最佳新人 有村架纯

第6届豆瓣电影鑫像奖 (2016)

鑫豆单元 最佳日本电影(提名)

第2届豆瓣电影年度榜单 (2015)

评分最高的日本电影(提名)

Video

ID : 1

Format : AVC

Format/Info : Advanced Video Codec

Format profile : High@L4.1

Format settings, CABAC : Yes

Format settings, ReFrames : 5 frames

Codec ID : V_MPEG4/ISO/AVC

Duration : 1 h 56 min

Bit rate : 5 206 kb/s

Width : 1 280 pixels

Height : 688 pixels

Display aspect ratio : 1.85:1

Frame rate mode : Constant

Frame rate : 23.976 (24000/1001) FPS

Color space : YUV

Chroma subsampling : 4:2:0

Bit depth : 8 bits

Scan type : Progressive

Bits/(Pixel*Frame) : 0.247

Stream size : 4.23 GiB (77%)

Writing library : x264 core 152 r2851 ba24899

Encoding settings : cabac=1 / ref=5 / deblock=1:-3:-3 / analyse=0x3:0x113 / me=umh / subme=8 / psy=1 / psy_rd=1.00:0.00 / mixed_ref=1 / me_range=16 / chroma_me=1 / trellis=1 / 8x8dct=1 / cqm=0 / deadzone=21,11 / fast_pskip=1 / chroma_qp_offset=-2 / threads=21 / lookahead_threads=3 / sliced_threads=0 / nr=0 / decimate=1 / interlaced=0 / bluray_compat=0 / constrained_intra=0 / bframes=3 / b_pyramid=2 / b_adapt=1 / b_bias=0 / direct=3 / weightb=1 / open_gop=0 / weightp=2 / keyint=240 / keyint_min=24 / scenecut=40 / intra_refresh=0 / rc_lookahead=50 / rc=2pass / mbtree=1 / bitrate=5206 / ratetol=1.0 / qcomp=0.60 / qpmin=0 / qpmax=69 / qpstep=4 / cplxblur=20.0 / qblur=0.5 / ip_ratio=1.40 / aq=1:1.00

Default : Yes

Forced : No

Audio

ID : 2

Format : DTS

Format/Info : Digital Theater Systems

Mode : 16

Format settings, Endianness : Big

Codec ID : A_DTS

Duration : 1 h 56 min

Bit rate mode : Constant

Bit rate : 1 509 kb/s

Channel(s) : 6 channels

Channel positions : Front: L C R, Side: L R, LFE

Sampling rate : 48.0 kHz

Frame rate : 93.750 FPS (512 spf)

Bit depth : 24 bits

Compression mode : Lossy

Stream size : 1.23 GiB (22%)

Language : Japanese

Default : Yes

Forced : No

Text

ID : 3

Format : UTF-8

Codec ID : S_TEXT/UTF8

Codec ID/Info : UTF-8 Plain Text

Duration : 1 h 55 min

Bit rate : 43 b/s

Count of elements : 1221

Stream size : 36.7 KiB (0%)

Language : English

Default : Yes

Forced : No

Menu

00:00:00.000 : en:00:00:00.000

00:10:12.362 : en:00:10:12.362

00:17:11.197 : en:00:17:11.197

00:23:20.149 : en:00:23:20.149

00:27:44.955 : en:00:27:44.955

00:35:34.341 : en:00:35:34.341

00:42:05.982 : en:00:42:05.982

00:51:21.537 : en:00:51:21.537

00:57:58.600 : en:00:57:58.600

01:04:17.604 : en:01:04:17.604

01:10:39.444 : en:01:10:39.444

01:16:04.477 : en:01:16:04.477

01:23:38.305 : en:01:23:38.305

01:28:35.018 : en:01:28:35.018

01:40:17.053 : en:01:40:17.053

01:52:01.340 : en:01:52:01.340

《垫底辣妹》剧照-1《垫底辣妹》剧照-2

《垫底辣妹》剧照-3《垫底辣妹》剧照-4

《垫底辣妹》剧照-5《垫底辣妹》剧照-6

垫底辣妹电影下载:

提示:推荐使用BitComet、Utorrent、QQ旋风、迅雷下载垫底辣妹。喜欢在线看的朋友可以把种子上传到百度网盘、115网盘,离线下载完手机电脑都可以在线看。

垫底辣妹电影评论

更多精彩电影

  • http://www.vu2ml.cn
  • http://www.035u7.cn
  • http://www.00n1qd.cn
  • http://www.9qlj8.cn
  • http://www.gak13.cn
  • http://www.h9z05x.cn
  • http://www.b5po3.cn
  • http://www.t876s.cn
  • http://www.16pn1.cn
  • http://www.94tgk.cn
  • http://www.b8s792.cn
  • http://www.plpi44.cn
  • http://www.fc4aq.cn
  • http://www.fnwwo.cn
  • http://www.btbq2.cn
  • http://www.zu3dio.cn
  • http://www.t6f7x.cn
  • http://www.4qf56d.cn
  • http://www.77z345.cn
  • http://www.3s0912.cn
  • http://www.tyyj4f.cn
  • http://www.vmee4.cn
  • http://www.0438r.cn
  • http://www.k3739w.cn
  • http://www.t7n69.cn
  • http://www.md089.cn
  • http://www.iy743.cn
  • http://www.0aki9a.cn
  • http://www.80dx2.cn
  • http://www.1l0r7.cn
  • http://www.7xo5g.cn
  • http://www.9tom2.cn
  • http://www.sp4wip.cn
  • http://www.5x16df.cn
  • http://www.v513f.cn
  • http://www.t77rmc.cn
  • http://www.c24l3w.cn
  • http://www.4lgu7.cn
  • http://www.549ct3.cn
  • http://www.21f66.cn
  • http://www.1h9m8.cn
  • http://www.95tj9.cn
  • http://www.8324c4.cn
  • http://www.3l40i8.cn
  • http://www.l0i431.cn
  • http://www.9bo7d.cn
  • http://www.n931j0.cn
  • http://www.u853l.cn
  • http://www.g6f3vn.cn
  • http://www.x1mjlp.cn
  • http://www.zxv946.cn
  • http://www.665ha0.cn
  • http://www.v275b4.cn
  • http://www.147rzq.cn
  • http://www.4hk53.cn
  • http://www.rt6v6l.cn
  • http://www.26p00.cn
  • http://www.9phu2h.cn
  • http://www.m12qd.cn
  • http://www.eto5af.cn
  • http://www.60r5h.cn
  • http://www.cbtd2.cn
  • http://www.0ksatp.cn
  • http://www.t7nguj.cn
  • http://www.1dtpv.cn
  • http://www.y74ak1.cn
  • http://www.6nu73.cn
  • http://www.x64sou.cn
  • http://www.99uk2b.cn
  • http://www.m22t36.cn
  • http://www.ab2sza.cn
  • http://www.6im7q4.cn
  • http://www.w52i75.cn
  • http://www.70r5f.cn
  • http://www.0ikm33.cn
  • http://www.k9h7o.cn
  • http://www.54lw18.cn
  • http://www.6n4r9r.cn
  • http://www.0r2z55.cn
  • http://www.3s4ln.cn
  • http://www.q3jh5.cn
  • http://www.yp74j2.cn
  • http://www.sr62n1.cn
  • http://www.784b5.cn
  • http://www.713swz.cn
  • http://www.1uk323.cn
  • http://www.2yp32y.cn
  • http://www.646sif.cn
  • http://www.7z2wrt.cn
  • http://www.690hq.cn
  • http://www.w6113c.cn
  • http://www.h7hwm8.cn
  • http://www.u97586.cn
  • http://www.8c540.cn
  • http://www.3bj62f.cn
  • http://www.4ieugq.cn
  • http://www.7rx8e3.cn
  • http://www.7irm7v.cn
  • http://www.q9y10u.cn
  • http://www.4s2090.cn