当前位置:
首页 » 动作片 » 恶女

《恶女 / The Villainess》2017韩影[1080P/韩语中字]【TSKS凤凰天使】

《恶女》海报

片名:恶女/ The Villainess

导演:郑秉吉

主演:申河均 金玉彬 盛骏 金瑞亨|

类型: 动作、犯罪

片长: 123分钟

分级:限制级

制片国家/地区:韩国

语言:韩语

上映日期:2017年06月08日

恶女剧情介绍:

  该片讲述了在中国被训练成杀手的女人在重新回到韩国后展开的复仇故事。

《恶女》剧照-1

General

Unique ID : 233271822737482214767667484447270394433 (0xAF7E84D3F4B7D3D686B4234CA5025A41)

Format version : Version 2

File size : 1.46 GiB

Duration : 2 h 3 min

Overall bit rate : 1 691 kb/s

Encoded date : UTC 2017-07-05 12:39:02

Writing application : mkvmerge v6.1.0 ('Old Devil') built on Mar  2 2013 14:32:37

Writing library : libebml v1.3.0 + libmatroska v1.4.0

Video

ID : 1

Format : AVC

Format/Info : Advanced Video Codec

Format profile : Baseline@L4

Format settings, CABAC : No

Format settings, ReFrames : 2 frames

Codec ID : V_MPEG4/ISO/AVC

Duration : 2 h 3 min

Bit rate : 1 500 kb/s

Width : 1 920 pixels

Height : 1 080 pixels

Display aspect ratio : 16:9

Frame rate mode : Constant

Frame rate : 29.970 (30000/1001) FPS

Color space : YUV

Chroma subsampling : 4:2:0

Bit depth : 8 bits

Scan type : Progressive

Bits/(Pixel*Frame) : 0.024

Stream size : 1.26 GiB (87%)

Writing library : x264 core 130 r2273 b3065e6

Encoding settings : cabac=0 / ref=2 / deblock=1:0:0 / analyse=0x1:0x111 / me=hex / subme=4 / psy=1 / psy_rd=1.00:0.00 / mixed_ref=0 / me_range=16 / chroma_me=1 / trellis=1 / 8x8dct=0 / cqm=0 / deadzone=21,11 / fast_pskip=1 / chroma_qp_offset=0 / threads=12 / lookahead_threads=3 / sliced_threads=0 / nr=0 / decimate=1 / interlaced=0 / bluray_compat=0 / constrained_intra=0 / bframes=0 / weightp=0 / keyint=300 / keyint_min=29 / scenecut=40 / intra_refresh=0 / rc_lookahead=20 / rc=abr / mbtree=1 / bitrate=1500 / ratetol=1.0 / qcomp=0.60 / qpmin=10 / qpmax=51 / qpstep=4 / ip_ratio=1.40 / aq=1:1.00

Language : English

Default : Yes

Forced : No

Audio

ID : 2

Format : AC-3

Format/Info : Audio Coding 3

Mode extension : CM (complete main)

Format settings, Endianness : Big

Codec ID : A_AC3

Duration : 2 h 3 min

Bit rate mode : Constant

Bit rate : 192 kb/s

Channel(s) : 2 channels

Channel positions : Front: L R

Sampling rate : 48.0 kHz

Frame rate : 31.250 FPS (1536 spf)

Bit depth : 16 bits

Compression mode : Lossy

Stream size : 170 MiB (11%)

Default : Yes

Forced : No

《恶女》剧照-2

恶女电影下载:

提示:推荐使用BitComet、Utorrent、QQ旋风、迅雷下载恶女。喜欢在线看的朋友可以把种子上传到百度网盘、115网盘,离线下载完手机电脑都可以在线看。

恶女电影评论

更多精彩电影