当前位置:
首页 » 剧情片 » 不汗党:地下秩序

不汗党:坏家伙们的世界/不汗党:地下秩序(台) The.Merciless.HDTV.720p.韩语中字-小玩剧字幕组

《不汗党:地下秩序  》海报

小玩剧字幕组:720P 韩语中字 MP4  [2017][The.Merciless][720p][小玩剧字幕组]

TSKS:修正版 720P HDTV-MKV 韩语中字 [TSKS][2017][ The Merciless][V2][KO_CN]

不汗党:坏家伙们的世界 (2017)导演:卞成贤

编剧:卞成贤

演员:

薛耿求

任时完

金希沅

全惠珍

李璟荣

许峻豪

金盛吴

崔秉默

类型: 剧情 / 动作

制片国家/地区: 韩国

语言: 韩语

上映日期: 2017-05-17(韩国)

又名: 不汗党:地下秩序 (台) / The Merciless / Bulhandang

剧情:

  南韩导演卞成贤执导作,任时完主演,首度挑战硬汉角色。

  不汗党是韩语中的无赖、痞子、流氓之意,电影《不汗党:地下秩序》描述监狱老大宰虎(薛耿求 饰)在牢里遇到了天不怕地不怕的新人贤修(任时完 饰),建立患难感情,出狱后两人为博得黑社会中更高的位置、更大的权力,开始龙争虎斗,两人看似坚不可破的兄弟情,却在一个秘密揭发后开始崩解。

「相信?!要小心!」

「信任的瞬间就已经开始背叛!」

  黑狱的老大宰虎(薛耿求 饰)是个连典狱长都敬畏三分的狠角色,狱中一切事务都得仰他鼻息而定。某日,宰虎突然遭道敌对帮派的埋伏,生死交关之际,刚入狱的菜鸟贤修(任时完饰)挺身而出、出手搭救。贤修凭着不服输的骨气与过人机智,很快地获得宰虎的信任并成为备受倚赖的左右手,两人也靠一双舔血的铁拳打出一片天。宰虎与贤修的野心从监狱延伸街头,出狱后一起打拼,扩大地盘、壮大势力,一步步成为黑社会之王。然而无坚不催的兄弟之情,却因为一个秘密的揭露,即将分崩离析--

General

  Complete name : 不汗党:坏家伙们的世界.The.Merciless.2017.HDTV.720p.韩语中字-小玩剧字幕组.mp4

Format : MPEG-4

Format profile : Base Media

Codec ID : isom (isom/iso2/mp41)

File size : 1.84 GiB

Duration : 2 h 0 min

Overall bit rate mode : Variable

Overall bit rate : 2 186 kb/s

Encoded date : UTC 2017-06-09 04:52:25

Tagged date : UTC 2017-06-09 04:52:25

Writing application : Lavf57.56.100

Video

ID : 1

Format : MPEG-4 Visual

Format profile : Simple@L1

Format settings, BVOP : No

Format settings, QPel : No

Format settings, GMC : No warppoints

Format settings, Matrix : Default (H.263)

Codec ID : 20

Duration : 2 h 0 min

Bit rate mode : Variable

Bit rate : 1 987 kb/s

Maximum bit rate : 18.3 Mb/s

Width : 1 280 pixels

Height : 720 pixels

Display aspect ratio : 16:9

Frame rate mode : Constant

Frame rate : 29.970 (30000/1001) FPS

Color space : YUV

Chroma subsampling : 4:2:0

Bit depth : 8 bits

Scan type : Progressive

Compression mode : Lossy

Bits/(Pixel*Frame) : 0.072

Stream size : 1.67 GiB (91%)

Writing library : Lavc57.64.101

Language : English

Encoded date : UTC 2017-06-09 04:52:25

Tagged date : UTC 2017-06-09 04:52:25

Audio

ID : 2

Format : AAC

Format/Info : Advanced Audio Codec

Format profile : LC

Codec ID : 40

Duration : 2 h 0 min

Duration_LastFrame : -22 ms

Bit rate mode : Constant

Bit rate : 192 kb/s

Channel(s) : 2 channels

Channel positions : Front: L R

Sampling rate : 44.1 kHz

Frame rate : 43.066 FPS (1024 spf)

Compression mode : Lossy

Stream size : 166 MiB (9%)

Language : English

Default : Yes

Alternate group : 1

Encoded date : UTC 2017-06-09 04:52:25

Tagged date : UTC 2017-06-09 04:52:25

CRC32: 2583cfa9

MD5: 30030b84df2de027828653817fb399f0

SHA1: e47523bf8f3c12649372bc7750a1985ae25bdff3

ED2K: 9b14deb0e2695e80d52d37cbea5f6baf

不汗党:地下秩序 电影下载:

提示:推荐使用BitComet、Utorrent、QQ旋风、迅雷下载不汗党:地下秩序 。喜欢在线看的朋友可以把种子上传到百度网盘、115网盘,离线下载完手机电脑都可以在线看。

不汗党:地下秩序 电影评论

更多精彩电影