当前位置:
首页 » 动画片 » 不要反抗

不要反抗 Do.Not.Resist.DOCU.720p.WEB-DL

《不要反抗》海报

◎译 名 不要反抗

◎片 名 Do Not Resist

◎年 代 2016

◎国 家 美国

◎类 别 犯罪/纪录片

◎语 言 英语

◎上映日期 2016-04-14(翠贝卡电影节)

◎IMDb评分  7.7/10 from 162 users

◎片 长 70分钟

◎导 演 Craig Atkinson

不要反抗剧情介绍:

An urgent and powerful exploration of the rapid militarization of the police in the United States. Starting on the streets of Ferguson| Missouri| as the communitygrapples with the death of Michael Brown| DO NOT RESIST - the directorial debut of Detropia cinematographer Craig Atkinson - offers a stunning look at the currentstate of policing in America and a glimpse into the future. The Tribeca Film Festival winner for Best Documentary puts viewers in the center of the action - from aride-along with a South Carolina SWAT team and inside a police training seminar that teaches the importance of "righteous violence" to the floor of a congressionalhearing on the proliferation of military equipment in small-town police departments - before exploring where controversial new technologies including predictivepolicing algorithms could lead the field next.

Video

ID : 1

Format : AVC

Format/Info : Advanced Video Codec

Format profile : High@L3.1

Format settings, CABAC : Yes

Format settings, ReFrames : 2 frames

Codec ID : V_MPEG4/ISO/AVC

Duration : 1h 12mn

Bit rate mode : Variable

Bit rate : 3 916 Kbps

Maximum bit rate : 768 Kbps

Width : 1 280 pixels

Height : 718 pixels

Display aspect ratio : 16:9

Frame rate mode : Constant

Frame rate : 23.976 (24000/1001) fps

Color space : YUV

Chroma subsampling : 4:2:0

Bit depth : 8 bits

Scan type : Progressive

Bits/(Pixel*Frame) : 0.178

Stream size : 1.98 GiB (89%)

Language : English

Default : Yes

Forced : No

Audio

ID : 2

Format : AC-3

Format/Info : Audio Coding 3

Mode extension : CM (complete main)

Format settings, Endianness : Big

Codec ID : A_AC3

Duration : 1h 12mn

Bit rate mode : Constant

Bit rate : 384 Kbps

Channel(s) : 6 channels

Channel positions : Front: L C R, Side: L R, LFE

Sampling rate : 48.0 KHz

Frame rate : 31.250 fps (1536 spf)

Compression mode : Lossy

Stream size : 199 MiB (9%)

Language : English

Default : Yes

Forced : No

Text

ID : 3

Format : UTF-8

Codec ID : S_TEXT/UTF8

Codec ID/Info : UTF-8 Plain Text

Language : English

Default : Yes

Forced : No

《不要反抗》剧照-1《不要反抗》剧照-2

《不要反抗》剧照-3《不要反抗》剧照-4

《不要反抗》剧照-5《不要反抗》剧照-6

不要反抗电影下载:

提示:推荐使用BitComet、Utorrent、QQ旋风、迅雷下载不要反抗。喜欢在线看的朋友可以把种子上传到百度网盘、115网盘,离线下载完手机电脑都可以在线看。

不要反抗电影评论

更多精彩电影