当前位置:
首页 » 剧情片 » 烈马柔情

烈马柔情 A.Fine.Step.1080p

《烈马柔情》海报

◎影片名称:《烈马柔情》

◎别 名:

◎片 名:A Fine Step

◎导 演:Jonathan Meyers

◎主 演:

◎豆瓣评分:0.0

◎语 言:英语

◎地 区:美国

◎年 代:2013

◎时 长:0分钟

◎上映时间:2013年01月01日

烈马柔情剧情介绍

When an expert horseman (Luke Perry) suffers a traumatic accident with his top horse| he overcomes his injury with the help of a young girl who helps rehabilitate
him and the horse


Video
ID : 1
Format : AVC
Format/Info : Advanced Video Codec
Format profile : [email protected]
Format settings, CABAC : Yes
Format settings, ReFrames : 5 frames
Codec ID : V_MPEG4/ISO/AVC
Duration : 1h 51mn
Bit rate : 8 321 Kbps
Width : 1 920 pixels
Height : 816 pixels
Display aspect ratio : 2.35:1
Frame rate mode : Constant
Frame rate : 24.000 fps
Color space : YUV
Chroma subsampling : 4:2:0
Bit depth : 8 bits
Scan type : Progressive
Bits/(Pixel*Frame) : 0.221
Stream size : 6.32 GiB (83%)
Title : A Fine Step (2014)
Writing library : x264 core 142 r2453 ea0ca51
Encoding settings : cabac=1 / ref=5 / deblock=1:0:0 / analyse=0x3:0x113 / me=umh / subme=7 / psy=1 / psy_rd=1.00:0.00 / mixed_ref=1 / me_range=16 / chroma_me=1 / trellis=1 / 8x8dct=1 / cqm=0 / deadzone=21,11 / fast_pskip=0 / chroma_qp_offset=-2 / threads=12 / lookahead_threads=2 / sliced_threads=0 / nr=0 / decimate=1 / interlaced=0 / bluray_compat=0 / constrained_intra=0 / bframes=3 / b_pyramid=2 / b_adapt=2 / b_bias=0 / direct=3 / weightb=1 / open_gop=0 / weightp=2 / keyint=250 / keyint_min=24 / scenecut=40 / intra_refresh=0 / rc_lookahead=50 / rc=2pass / mbtree=1 / bitrate=8321 / ratetol=1.0 / qcomp=0.60 / qpmin=0 / qpmax=69 / qpstep=4 / cplxblur=20.0 / qblur=0.5 / ip_ratio=1.40 / aq=1:1.00
Default : Yes
Forced : No

Audio
ID : 2
Format : DTS
Format/Info : Digital Theater Systems
Mode : 16
Format settings, Endianness : Big
Codec ID : A_DTS
Duration : 1h 51mn
Bit rate mode : Constant
Bit rate : 1 509 Kbps
Channel(s) : 6 channels
Channel positions : Front: L C R, Side: L R, LFE
Sampling rate : 48.0 KHz
Frame rate : 93.750 fps (512 spf)
Bit depth : 24 bits
Compression mode : Lossy
Stream size : 1.17 GiB (15%)
Title : English
Language : English
Default : Yes
Forced : No

烈马柔情电影下载:

提示:推荐使用BitComet、Utorrent、QQ旋风、迅雷下载烈马柔情。喜欢在线看的朋友可以把种子上传到百度网盘、115网盘,离线下载完手机电脑都可以在线看。

烈马柔情电影评论

更多精彩电影