当前位置:
首页 » 其他 » 揭开宇宙空间

揭开宇宙空间 Space.Unraveling.the.Cosmos.1080p

《揭开宇宙空间》海报

◎影片名称:《揭开宇宙空间》

◎别 名:

◎片 名:Space Unraveling the Cosmos

◎导 演:Gilbert King

◎主 演:

◎豆瓣评分:0.0

◎语 言:英语

◎地 区:美国

◎年 代:2014

◎时 长:49分钟

◎上映时间:1970年01月01日

揭开宇宙空间剧情介绍

ID : 1
Format : AVC
Format/Info : Advanced Video Codec
Format profile : [email protected]
Format settings, CABAC : Yes
Format settings, ReFrames : 4 frames
Codec ID : V_MPEG4/ISO/AVC
Duration : 48mn 29s
Bit rate : 11.9 Mbps
Width : 1 920 pixels
Height : 1 080 pixels
Display aspect ratio : 16:9
Frame rate mode : Constant
Frame rate : 23.976 (24000/1001) fps
Color space : YUV
Chroma subsampling : 4:2:0
Bit depth : 8 bits
Scan type : Progressive
Bits/(Pixel*Frame) : 0.240
Stream size : 3.96 GiB (91%)
Writing library : x264 core 148 r2665 a01e339
Encoding settings : cabac=1 / ref=4 / deblock=1:-2:-2 / analyse=0x3:0x113 / me=umh / subme=8 / psy=1 / psy_rd=1.00:0.00 / mixed_ref=1 / me_range=16 / chroma_me=1 / trellis=1 / 8x8dct=1 / cqm=0 / deadzone=21,11 / fast_pskip=1 / chroma_qp_offset=-2 / threads=12 / lookahead_threads=2 / sliced_threads=0 / nr=0 / decimate=1 / interlaced=0 / bluray_compat=0 / constrained_intra=0 / bframes=3 / b_pyramid=2 / b_adapt=2 / b_bias=0 / direct=3 / weightb=1 / open_gop=0 / weightp=2 / keyint=240 / keyint_min=24 / scenecut=40 / intra_refresh=0 / rc_lookahead=50 / rc=2pass / mbtree=1 / bitrate=11942 / ratetol=1.0 / qcomp=0.60 / qpmin=0 / qpmax=69 / qpstep=4 / cplxblur=20.0 / qblur=0.5 / ip_ratio=1.40 / aq=1:1.00
Language : English
Default : Yes
Forced : No

Audio
ID : 2
Format : DTS
Format/Info : Digital Theater Systems
Mode : 16
Format settings, Endianness : Big
Codec ID : A_DTS
Duration : 48mn 29s
Bit rate mode : Constant
Bit rate : 960 Kbps
Channel(s) : 6 channels
Channel positions : Front: L C R, Side: L R, LFE
Sampling rate : 48.0 KHz
Frame rate : 93.750 fps (512 spf)
Bit depth : 24 bits
Compression mode : Lossy
Stream size : 333 MiB (7%)
Language : English
Default : Yes
Forced : No

Menu
00:00:00.000 : en:00:00:00.000
00:10:00.767 : en:00:10:00.767
00:19:59.990 : en:00:19:59.990
00:29:59.965 : en:00:29:59.965
00:39:59.981 : en:00:39:59.981w.btbtt.la

揭开宇宙空间电影下载:

提示:由于该资源受到用户投诉或版权方要求,已经停止链接分享

揭开宇宙空间电影评论

更多精彩电影