当前位置:
首页 » 剧情片 » 悔悟

《悔悟》(Monanieba)[DVDRip]

中文名: 悔悟

英文名: Monanieba

别名: 悔恨,忏悔,Repentance,Confession,Pokayaniye,PokayanieIMDb: 7.5/10 (671 votes)

资源格式: DVDRip

发行日期: 1984年

导演: 钦吉兹·阿布拉泽 Tengiz Abuladze

演员: Avtandil Makharadze ....Varlam Aravidze/Abel Aravidze

Ya Ninidze ....Guliko

Zeinab Botsvadze ....Ketevan Barateli

Ketevan Abuladze ....Nino Barateli

Edisher Giorgiobiani ....Sandro Barateli

Kakhi Kavsadze ....Mikhail Koresheli

悔悟剧情介绍:

《悔悟》海报

中 文 名:悔悟

英 文 名:Monanieba

导 演:钦吉兹·阿布拉泽 Tengiz Abuladze

编 剧:钦吉兹·阿布拉泽 Tengiz Abuladze

Nana Dzhanelidze

Rezo Kveselava

主 演:Avtandil Makharadze ....Varlam Aravidze/Abel Aravidze

Ya Ninidze ....Guliko

Zeinab Botsvadze ....Ketevan Barateli

类 型:剧情

片 长:153分钟

地 区:苏联

对白

语言:格鲁吉亚语

色 彩:彩色

剧情 (发布者: Mtime)

  瓦尔拉姆·阿拉维泽,这个格鲁吉亚小城的最高统治者死了,他的死亡对于一些人而言是悲痛,而对于另一些人就是节日。政治人物的葬礼是一个仪式,鲜花和安慰都是道具,悼词和赞颂都是程式化的,这是谢幕也是开幕,身后事往往比生前事更加热闹。葬礼结束,该干吗的就干吗!死人的照片也不再需要,亲昵的声音排遣了死者带来的忧伤!活着,就得干哪!清晨,怪事出现了,瓦尔拉姆·阿拉维泽的尸体竟然站在了院子的一棵树下,他的儿子阿维尔只得将他重新掩埋,可是,次日清晨,它再度回到了老地方。为了父亲的安宁,他们竟然听从了间壁一位将军愚蠢的建议,将坟墓装上了铁栅栏。然而,它依旧回来了!

◎幕后制作

  本片被誉为塔可夫斯基之后最完美的苏联电影,其主题是在拆解斯大林神话,并反省斯大林统治期间的政治暴力。影片注重于对民族兴亡、文化基因、人物心理结构的思考,同时力求深刻的人性内容和鲜明的表现形式,并取得两者间的均衡和谐。通过现实与虚构融合的超现实表现方式,完美地讲述了一个关于罪与罚的隐喻式的故事。本片获戛纳国际电影节评委会特别奖,是阿布拉泽的三部曲之一。

  本片被认为是苏联电影改革的"第一只春燕",由苏联当代"诗电影"的代表人物之一的钦·阿布拉泽导演。故事情节虽属虚构,但影片的内容却是高度现实主义。《悔悟》是阿布拉泽三部曲的第三部,前两部分别是《愿望树》、《祈求》。

  虽然付出影片禁演三年的代价,但是导演勇敢地以嘲讽和戏谑的方式抨击包括斯大林在内的全世界独裁者,当这部影片解禁时,得到广泛而且无与伦比的掌声。

电影海报

《悔悟》剧照-1

悔悟影片截图:

《悔悟》剧照-2

《悔悟》剧照-3

《悔悟》剧照-4

视频参数

General

Complete name : [悔悟].Monanieba.1984.DVDRip.XviD-Vass.CD1.avi

Format : AVI

Format/Info : Audio Video Interleave

File size : 693 MiB

Duration : 1h 9mn

Overall bit rate : 1 385 Kbps

Video

Format : MPEG-4 Visual

Format profile : Streaming [email protected]

Format settings, BVOP : Yes

Format settings, QPel : Yes

Format settings, GMC : 3 warppoints

Format settings, Matrix : Default

Codec ID : XVID

Codec ID/Hint : XviD

Duration : 1h 9mn

Bit rate : 1 268 Kbps

Width : 640 pixels

Height : 480 pixels

Display aspect ratio : 4/3

Frame rate : 25.000 fps

Resolution : 24 bits

Colorimetry : 4:2:0

Scan type : Progressive

Bits/(Pixel*Frame) : 0.165

Stream size : 634 MiB (92%)

Writing library : XviD 1.0.0 RC2 (Jambo) (UTC 2004-02-01)

Audio

Format : MPEG Audio

Codec ID : 55

Codec ID/Hint : MP3

Duration : 1h 9mn

Bit rate : 108 Kbps

Channel(s) : 2 channels

Sampling rate : 48.0 KHz

Stream size : 54.2 MiB (8%)

Alignment : Aligned on interleaves

Interleave, duration : 24 ms (0.60 video frame)

Interleave, preload duration : 8510 ms

General

Complete name : [悔悟].Monanieba.1984.DVDRip.XviD-Vass.CD2.avi

Format : AVI

Format/Info : Audio Video Interleave

File size : 690 MiB

Duration : 1h 14mn

Overall bit rate : 1 296 Kbps

Video

Format : MPEG-4 Visual

Format profile : Streaming [email protected]

Format settings, BVOP : Yes

Format settings, QPel : Yes

Format settings, GMC : 3 warppoints

Format settings, Matrix : Default

Codec ID : XVID

Codec ID/Hint : XviD

Duration : 1h 14mn

Bit rate : 1 185 Kbps

Width : 640 pixels

Height : 480 pixels

Display aspect ratio : 4/3

Frame rate : 25.000 fps

Resolution : 24 bits

Colorimetry : 4:2:0

Scan type : Progressive

Bits/(Pixel*Frame) : 0.154

Stream size : 631 MiB (91%)

Writing library : XviD 1.0.0 RC2 (Jambo) (UTC 2004-02-01)

Audio

Format : MPEG Audio

Format version : Version 1

Format profile : Layer 3

Codec ID : 55

Codec ID/Hint : MP3

Duration : 1h 14mn

Bit rate mode : Variable

Bit rate : 103 Kbps

Channel(s) : 2 channels

Sampling rate : 48.0 KHz

Resolution : 16 bits

Stream size : 54.8 MiB (8%)

Alignment : Aligned on interleaves

Interleave, duration : 24 ms (0.60 video frame)

==========================

  如此出色的电影VC竟一直无人发布,我只好从网上找了一个,字幕是中文的。

  我看了好几遍,很棒,真的很棒。长期做种,1MB宽带。

悔悟电影下载:

提示:由于该资源受到用户投诉或版权方要求,已经停止链接分享

悔悟电影评论

更多精彩电影