当前位置:
首页 » 喜剧片 » 少年百战天龙

《少年百战天龙》(Young Macgyver)【E.U字幕组】[HALFCD]

◎译 名 少年百战天龙

◎片 名 Young Macgyver

◎年 代 2003

◎国 家 美国

◎类 别 喜剧

◎语 言 英语

◎字 幕 中文

◎文件格式 avi

◎IMDB评分 3.3/10 95 votes

◎导 演 Stephen Herek

◎主 演

Alan Loayza

Lee Burns

Ron Canada

Dominic Golden

Tracey McCall

少年百战天龙剧情介绍:

  2003年拍摄的电视电影,讲的是马盖先的姪子的冒险故事。

  人高马大、帅气英俊的杰瑞,21岁就在「Young MacGyver」影集中演马盖先的姪子。

  制作单位本想套用「百战天龙」的模式,再创收视长红,

  Young MacGyver 是一部胎死腹中的影集,2003 由 WB 出品,Jared 饰演的主角 Clay MacGyver 不是小时候的马盖先,而是 MacGyver 的姪子,他刚从学校毕业,对 MacGyver 的工作非常感兴趣,MacGyver 就训练他面对各种情况要如何反应,最后他加入了凤凰城基金会,接替他叔叔的工作。

For one thing, in Macgyver the original series he states

that he is an only child. So how is the world could he have a nephew??? I would hope that the people who want to put into production a Young Macgyver series would make it about Macgyver when he was younger and not a make believe Nephew he never had to begin with. I am sure that Richard Dean Anderson s memory of being one of the greatest TV icons known as Macgyver would never falter if a spin off was made. I hope and pray that A spin off of Macgyver is never made because they would be embarrassing themselves. If anything don t ruin a great show by making a spin off. I hope that in the near future everyone learns to appreciate great quality TV instead of getting into stupid shows like the bachelor and the bachelorette. These shows are demoralizing to the people who are in them and suck, but that is another matter completely.

General

Complete name : D:SofteMule0.49c-Mephisto_v2.2-binIncoming[少年百战天龙].YoungMacgyver.2003.DVD.x264.HALFCD-E.U字幕组.avi

Format : AVI

Format/Info : Audio Video Interleave

File size : 377 MiB

Duration : 46mn 50s

Overall bit rate : 1 124 Kbps

Writing application : MEncoder SVN-r29352(20090610-gcc4.3.3)

Writing library : MPlayer

Video

ID : 0

Format : AVC

Format/Info : Advanced Video Codec

Format profile : [email protected]

Format settings, CABAC : No

Format settings, ReFrames : 1 frame

Codec ID : avc1

Duration : 46mn 50s

Bit rate : 1 024 Kbps

Width : 416 pixels

Height : 320 pixels

Display aspect ratio : 1.300

Frame rate : 24.000 fps

Color space : YUV

Chroma subsampling : 4:2:0

Bit depth : 8 bits

Scan type : Progressive

Bits/(Pixel*Frame) : 0.321

Stream size : 340 MiB (90%)

Writing library : x264 core 67 r1163+17 7d945df

Encoding settings : cabac=0 / ref=1 / deblock=1:0:0 / analyse=0x1:0x111 / me=hex / subme=6 / psy_rd=1.0:0.0 / mixed_ref=0 / me_range=16 / chroma_me=1 / trellis=0 / 8x8dct=0 / cqm=0 / deadzone=21,11 / chroma_qp_offset=-2 / threads=3 / nr=0 / decimate=1 / mbaff=0 / bframes=0 / keyint=250 / keyint_min=25 / scenecut=40 / rc=abr / bitrate=1024 / ratetol=1.0 / qcomp=0.60 / qpmin=10 / qpmax=51 / qpstep=4 / ip_ratio=1.40 / aq=1:1.00

Audio

ID : 1

Format : MPEG Audio

Format version : Version 1

Format profile : Layer 3

Mode : Joint stereo

Mode extension : MS Stereo

Codec ID : 55

Codec ID/Hint : MP3

Duration : 46mn 50s

Bit rate mode : Constant

Bit rate : 96.0 Kbps

Channel(s) : 2 channels

Sampling rate : 44.1 KHz

Stream size : 32.2 MiB (9%)

Alignment : Aligned on interleaves

Interleave, duration : 26 ms (0.63 video frame)

Interleave, preload duration : 522 ms

Writing library : LAME3.98

《少年百战天龙》海报

《少年百战天龙》剧照-1

《少年百战天龙》剧照-2

《少年百战天龙》剧照-3

少年百战天龙电影下载:

[E.U字幕组].少年百战天龙.YoungMacgyver.avi
提示:推荐使用BitComet、Utorrent、QQ旋风、迅雷下载少年百战天龙。喜欢在线看的朋友可以把种子上传到百度网盘、115网盘,离线下载完手机电脑都可以在线看。

少年百战天龙电影评论

更多精彩电影