当前位置:
首页 » 剧情片 » 天堂在望

《天堂在望》(Seeing Heaven)[DVDRip]

《天堂在望》海报

【影片原名】Seeing Heaven

【中文译名】天堂在望

【出品公司】Magic Mask Pictures Limited

【出品年代】2010 年

【上映日期】2011年3月2日 澳大利亚

【影片级别】Australia:R

【IMDB评分】6.4/10 (25 votes)

【国 家】英国

【类 别】剧情

【导 演】Ian Powell

【主 演】Alexander Bracq -.Paul

Denton Lethe -.Zhivago

Maximo Salvo -.Carlos

Anthony Styles -.Simon

Gunnar Hojem -.Nick

Andrew Shire -.Bobby

Nic Gilder -.Alan

Scott Van Der Merwe -.Adam

Jamie Karl Cross -.Jamie

Piotr Blak -.Peter

Israel Cassol -.Israel

Lee Chapman -.Baxter

Chris Grezo -.Griffin

Anton Z. Risan -.Pan

Thomas Thoroe -.DeLeon

天堂在望剧情介绍:

A beautiful young escort, Paul, suffers from trip-like dreams he doesn`t understand. Paul is searching for his twin brother, but the journey he goes on is a dark one. In discovering his true past, Paul is in danger of destroying himself.

代码General

Complete name : Seeing.Heaven.2010.DVDRip.XviD-QaFoNE.avi

Format  : AVI

Format/Info : Audio Video Interleave

Format profile  : OpenDML

File size : 697 MiB

Duration  : 1h 46mn

Overall bit rate  : 911 Kbps

Writing application : AVI-Mux GUI 1.17.8, Aug 30 2008 12:36:58

Video

ID  : 0

Format  : MPEG-4 Visual

Format profile  : [email protected]

Format settings, BVOP : No

Format settings, QPel : No

Format settings, GMC  : No warppoints

Format settings, Matrix : Default (H.263)

Codec ID  : XVID

Codec ID/Hint : XviD

Duration  : 1h 46mn

Bit rate  : 792 Kbps

Width : 640 pixels

Height  : 256 pixels

Display aspect ratio  : 2.500

Frame rate  : 29.970 fps

Resolution  : 8 bits

Colorimetry : 4:2:0

Scan type : Progressive

Bits/(Pixel*Frame)  : 0.161

Stream size : 606 MiB (87%)

Writing library : XviD 58

Audio

ID  : 1

Format  : MPEG Audio

Format version  : Version 1

Format profile  : Layer 3

Mode  : Joint stereo

Format_Settings_ModeExtension : MS Stereo

Codec ID  : 55

Codec ID/Hint : MP3

Duration  : 1h 46mn

Bit rate mode : Variable

Bit rate  : 109 Kbps

Nominal bit rate  : 128 Kbps

Channel(s)  : 2 channels

Sampling rate : 48.0 KHz

Stream size : 83.5 MiB (12%)

Alignment : Aligned on interleaves

Interleave, duration  : 24 ms (0.72 video frame)

Interleave, preload duration  : 168 ms

Title : SH2010 T80 2_0ch 192Kbps DELAY 0ms

Writing library : LAME3.98r

Encoding settings : -m j -V 4 -q 2 -lowpass 17 --abr 128

天堂在望电影下载:

提示:推荐使用BitComet、Utorrent、QQ旋风、迅雷下载天堂在望。喜欢在线看的朋友可以把种子上传到百度网盘、115网盘,离线下载完手机电脑都可以在线看。

天堂在望电影评论

更多精彩电影