当前位置:
首页 » 剧情片 » 这样的爱

《这样的爱》(What Love May Bring)[720P]

《这样的爱》海报

◎中 文 名 这样的爱

◎英 文 名 Those.Loves/What.Love.May.Bring

◎原 名 Ces amours-là

◎年 代 2010

◎国 家 法国

◎类 别 剧情

◎片 长 119 Min

◎导 演 克劳德·勒鲁什 Claude Lelouch

◎主 演 多米尼克·皮诺 Dominique Pinon ...Maurice Lemoine

阿努克·艾梅 Anouk Aimee ...Madame Blum

雅基·伊多 Jacky Ido ...Bob

奥黛丽·达娜 Audrey Dana ...Ilva

Gisèle Casadesus ...Ilva

Zoltan Butuc ...Deporte Fou

Samuel Labarthe ...Horts

Kitty Cepraga ...Brigitte Bardot

Gilles Lemaire ...Jim Singer

Robert Hoehn ...(voice)

Laurent Couson ...Simon

拉斐尔 Rapha?l ...Le Premier et Dernier Amour

Judith Magre ...La Mère du Pianiste

Liane Foly ...La Chanteuse Des Rues

齐达内·苏阿内 Zinedine Soualem ...L Accordéoniste

安君 Anggun ...Herself

克里斯汀·西蒂 Christine Citti ...L empoisonneuse

Lise Lamétrie ...Madame Dubois

◎分 级 Switzerland:10

◎制作公司 Les Films 13

Les Films du Kiosque (co-production)

Studio 37 (co-production)

France 3 Cinéma (co-production)

Mediapro Studios (co-production)

Canal+ (participation)

France 3 (FR 3) (participation)

CinéCinéma (participation)

Soficinéma 5 Développement (support)

◎发行公司 Rézo Films (2010) (France) (theatrical)

◎官方网站 N/A

这样的爱剧情介绍:

  《这样的爱》是一部法国浪漫喜剧,它探讨了思想放纵的妇女的生活观和爱情观。由Audery Dana饰演的 IIva 是影片的主角,她的生活就像一幅充满浪漫主义色彩的的壁画,许多各种各样的情人们夹杂其中,却又都让她感觉绝望不已。《这样的爱》把镜头聚焦在希望寻找到自己位置的 IIva 的浪漫眼神,将所有放纵女性都会面临的必要矛盾展现得淋漓尽致。([email protected])

[email protected]门拍摄,讲述女主人公Ilva在二战的大背景下的三段感情历程。这部跨越10几年的爱情恩怨情仇,在二战背景下,犹如女性版的《日瓦戈医生》。Studio 37 法国二区11年4月13日发行。Ilva在解救他父亲时意外与德国军官相爱而与初恋男友分手,继而在这位军官离去之后又同时爱上两个美国军人Jim和Bob,其中Jim还成为她的第一任丈夫,并为得到她而不惜谋杀了自己的好友Bob。最终在离婚之际,她才找到真爱,她的诉讼律师Simon。([email protected]

代码General

Format  : Matroska

File size : 5.46 GiB

Duration  : 1h 59mn

Overall bit rate  : 6 547 Kbps

Movie name  : Ces amours-l├á (2010)

Encoded date  : UTC 2011-04-12 22:26:29

Writing application : mkvmerge v4.6.0 ( Still Crazy After All These Years ) built on Mar 10 2011 02:50:32

Writing library : libebml v1.2.0 + libmatroska v1.1.0

Video

ID  : 1

Format  : AVC

Format/Info : Advanced Video Codec

Format profile  : [email protected]

Format settings, CABAC  : Yes

Format settings, ReFrames : 5 frames

Codec ID  : V_MPEG4/ISO/AVC

Duration  : 1h 59mn

Bit rate  : 5 036 Kbps

Width : 1 280 pixels

Height  : 544 pixels

Display aspect ratio  : 2.35:1

Frame rate  : 24.000 fps

Color space : YUV

Chroma subsampling  : 4:2:0

Bit depth : 8 bits

Scan type : Progressive

Bits/(Pixel*Frame)  : 0.301

Stream size : 4.10 GiB (75%)

Title : x264 720p @ 5 Mbps

Writing library : x264 core 114 r1924 08d04a4

Encoding settings : cabac=1 / ref=5 / deblock=1:0:0 / analyse=0x3:0x113 / me=umh / subme=7 / psy=1 / psy_rd=1.00:0.00 / mixed_ref=1 / me_range=16 / chroma_me=1 / trellis=1 / 8x8dct=1 / cqm=0 / deadzone=21,11 / fast_pskip=0 / chroma_qp_offset=-2 / threads=12 / sliced_threads=0 / nr=0 / decimate=1 / interlaced=0 / constrained_intra=0 / bframes=3 / b_pyramid=2 / b_adapt=1 / b_bias=0 / direct=1 / weightb=1 / open_gop=0 / weightp=2 / keyint=250 / keyint_min=24 / scenecut=40 / intra_refresh=0 / rc_lookahead=40 / rc=2pass / mbtree=1 / bitrate=5036 / ratetol=1.0 / qcomp=0.60 / qpmin=0 / qpmax=69 / qpstep=4 / cplxblur=20.0 / qblur=0.5 / ip_ratio=1.40 / aq=1:1.00

Language  : French

Audio

ID  : 2

Format  : DTS

Format/Info : Digital Theater Systems

Codec ID  : A_DTS

Duration  : 1h 59mn

Bit rate mode : Constant

Bit rate  : 1 510 Kbps

Channel(s)  : 6 channels

Channel positions : Front: L C R, Side: L R, LFE

Sampling rate : 48.0 KHz

Bit depth : 24 bits

Compression mode  : Lossy

Stream size : 1.26 GiB (23%)

Title : DTS 5.1 @ 1.5 Mbps (DTS-MA core)

Language  : French

Text

ID  : 3

Format  : UTF-8

Codec ID  : S_TEXT/UTF8

Codec ID/Info : UTF-8 Plain Text

Title : Forced

Language  : French

这样的爱电影下载:

提示:由于该资源受到用户投诉或版权方要求,已经停止链接分享

这样的爱电影评论

更多精彩电影