当前位置:
首页 » 其他 » 请脱掉鞋子

《请脱掉鞋子》(Please Remove Your Shoes)[DVDRip]

《请脱掉鞋子》海报

◎译 名 请脱掉鞋子

◎片 名 Please Remove Your Shoes

◎年 代 2010

◎国 家 美国

◎类 别 传记/历史/新闻/纪录片

◎语 言 英语

◎字 幕 搜索字幕

◎IMDB评分 6.3/10 (5 votes)

◎文件格式 XviD + MP3

◎视频尺寸 640 x 352

◎文件大小 1CD 50 x 15MB

◎片 长 93 Mins

◎导 演 Rob DelGaudio

◎主 演 P. Jeffrey Black ... Himself

请脱掉鞋子剧情介绍:

  这是一部讽刺美国政府保护航空安全失职,滥用纳税人的钱的纪录片。一些知道真相的人,例如国会议员、空警和航班安全人员,将告诉你这一切背后的真实故事。([email protected])

A documentary about the US government s broken promise to keep our airlines secure, and the personal stories of a few people who know the truth - congressmen, air marshals, aviation security employees. It will make you angry and flying in an airplane may never be the same again.

Every day two million airline passengers in the U.S. are probed, queried, inspected, and scrutinized...

Please Remove Your Shoes is a revealing documentary about broken government process. It is also an empathetic story about a half dozen public servants who try to fix it. And it is a familiar topic to all of us who have flown in the last fifteen years:the security routine at the airport, first the FAA and now the TSA Please Remove Your Shoes examines the period before 911 and the current situation nine years later and asks the questions that make Washington squirm: "Are we really any better for all our money spent? Or is it safe to say that nothing has changed?"

...Now the shoe is on the other foot.

代码  ARTiCHOKE

SPRiNTER proudly presents...

Please.Remove.Your.Shoes.2010.DOCU.DVDRip.XviD-SPRiNTER

Subtitles: N/A

Date: 2011.04

Genre: Documentary | Biography | History

Release notes

A documentary about the US government s broken promise to keep our

airlines secure, and the personal stories of a few people who know

the truth

News

We are currently looking for:

- Suppliers who can provide pre-retail or retail dvds with decent upload!

- 50Mbit+ dump providers with 1TB+ free space.

- 100mbit+ .kr/.jp affiliation.

Greetings

NTX aAF FiCO HNR CiNEFiLE AEN HUMANiSM 0MNiDVD TASTE

Details

Format  : AVI

Format/Info : Audio Video Interleave

File size : 702 MiB

Duration  : 1h 33mn

Overall bit rate  : 1 046 Kbps

Writing application : Nandub v1.0rc2

Writing library : Nandub build 1852/release

Video

ID  : 0

Format  : MPEG-4 Visual

Format profile  : Advanced [email protected]

Format settings, BVOP : Yes

Format settings, QPel : No

Format settings, GMC  : No warppoints

Format settings, Matrix : Default (MPEG)

Codec ID  : XVID

Codec ID/Hint : XviD

Duration  : 1h 33mn

Bit rate  : 892 Kbps

Width : 640 pixels

Height  : 352 pixels

Display aspect ratio  : 16:9

Frame rate  : 23.976 fps

Color space : YUV

Chroma subsampling  : 4:2:0

Bit depth : 8 bits

Scan type : Progressive

Bits/(Pixel*Frame)  : 0.165

Stream size : 598 MiB (85%)

Writing library : XviD 1.2.1 (UTC 2008-12-04)

Audio

ID  : 1

Format  : MPEG Audio

Format version  : Version 1

Format profile  : Layer 3

Mode  : Joint stereo

Mode extension  : MS Stereo

Codec ID  : 55

Codec ID/Hint : MP3

Duration  : 1h 33mn

Bit rate mode : Variable

Bit rate  : 142 Kbps

Minimum bit rate  : 128 Kbps

Channel(s)  : 2 channels

Sampling rate : 48.0 KHz

Stream size : 95.0 MiB (14%)

Alignment : Aligned on interleaves

Interleave, duration  : 24 ms (0.58 video frame)

Interleave, preload duration  : 124 ms

Writing library : LAME3.90.

Encoding settings : -m j -V 8 -q 2 -lowpass 14.3 --vbr-new -b 128

请脱掉鞋子电影下载:

提示:由于该资源受到用户投诉或版权方要求,已经停止链接分享

请脱掉鞋子电影评论

更多精彩电影