当前位置:
首页 » 剧情片 » 青春校园

青春校园   Teen.Spirit.HDTV

《青春校园》海报

◎译 名 青春校园

◎片 名 Teen Spirit

◎年 代 2011

◎国 家 美国

◎类 别 剧情

◎语 言 英语

◎字 幕 N/A

◎IMDB评分 5.1/10 (95 votes)

◎文件格式 XviD + MP3

◎视频尺寸 720 x 480

◎文件大小 1CD 37 x 20MB

◎片 长 81 Mins

◎导 演 Gil Junger

◎主 演

Lindsey Shaw     ...    Lisa

Chris Zylka     ...    Nick

Cassie Scerbo     ...    Amber

Lucius Baston     ...    Vice-Principal Richardson

Elena Varela     ...    Aunt Marielle

Andrea Powell     ...    Gillian

Rhoda Griffis     ...    Vesper

Carissa Capobianco     ...    Paisley

Cullen Moss     ...    Faline

Ben Winchell     ...    Aiden

Katie Sarife     ...    Selena

Gabriela Lopez     ...    Carlita

Travis Quentin Young     ...    Colin

Allen Williamson     ...    Brandon

Cree Ivey     ...    Clementine

青春校园剧情介绍:

The story is about Amber, a mean popular girl who gets electrocuted and dies and is not allowed to enter into heaven unless she helps the least popular girl in school become Prom Queen within a week, but things do not go as planned.

Teen.Spirit.2011.HDTV.XVID-OCW

Size: 1.154 GB

Video: XVID │ 720╫480 │ 1 801 Kbps │ 23.976 fps

Audio: English │ MP3 │ 192 Kbps

Genre: Drama

IMDB rating: NA

Directed by: Gil Junger

Starring: Lindsey Shaw, Cassie Scerbo and Chris Zylka

ABC-Family channel Made for TV movie.

HDTV capture, small logo bottom right.

Basic Information

-----------------

Format                   : MPEG-4 Visual

Format profile             : Advanced [email protected]

Format settings, BVOP         : No

Format settings, QPel         : No

Format settings, GMC         : No warppoints

Format settings, Matrix       : Default (H.263)

Video

-----------------

Codec ID                 : XVID

Codec ID/Hint               : XviD

Duration                 : 1h 21mn

Bit rate                 : 1 801 Kbps

Width                   : 720 pixels

Height                   : 480 pixels

Display aspect ratio         : 3:2

Frame rate                 : 23.976 fps

Standard                 : NTSC

Color space               : YUV

Chroma subsampling           : 4:2:0

Bit depth                 : 8 bits

Scan type                 : Progressive

Compression mode             : Lossy

Bits/(Pixel*Frame)           : 0.217

Stream size               : 1.03 GiB (90%)

Audio

-----------------

ID                     : 1

Format                   : MPEG Audio

Format version             : Version 1

Format profile             : Layer 3

Codec ID                 : 55

Codec ID/Hint               : MP3

Duration                 : 1h 21mn

Bit rate mode               : Constant

Bit rate                 : 192 Kbps

Channel(s)                 : 2 channels

Sampling rate               : 44.1 KHz

Compression mode             : Lossy

Stream size               : 112 MiB (10%)

青春校园电影下载:

提示:由于该资源受到用户投诉或版权方要求,已经停止链接分享

青春校园电影评论

更多精彩电影