当前位置:
首页 » 剧情片 » 会谈

《会谈》(Session)[DVDRip]

《会谈》海报

◎译 名 会谈

◎片 名 Session

◎年 代 2011

◎国 家 美国

◎类 别 剧情

◎语 言 英语

◎字 幕 N/A

◎IMDB评分 5.9/10 (23 votes)

◎文件格式 XviD + MP3

◎视频尺寸 592 x 352

◎文件大小 1CD 51 x 15MB

◎片 长 90 Mins

◎导 演 哈伊姆·博扎格洛 Haim Bouzaglo

◎主 演 芭儿·莱法利 Bar Refaeli ....Eden

汤姆·鲍尔 Tom Bower ....Dr. Albert Solomon

Gillian Buick ....Rikki

Shirly Brener ....Sandy

Gil Hacohen ....David

斯蒂文·鲍尔 Steven Bauer ....Jake Tellman

李伦·勒夫 Liron Levo ....Gabrielle

Smadar Brenner ....Daniella

Adi Ezroni

Benjamin Daniels ....Police Officer #2

Danny Rytenberg ....Avi

Kevin Meegan ....Shy Crying Bald Man

会谈剧情介绍:

  超模Bar首次担任电影主演,扮演女主人公怀疑自己有预知未来的超能力,但却被指是患上精神病,要接受治疗,结果心理专家却恋上了这位身材火辣的女病人,更与她发生了关系。

引用:

ARTiCHOKE

SPRiNTER proudly presents...

Session.2011.STV.DVDRip.XViD-SPRiNTER

Date: 2011.05

Genre: Drama

Release notes

Enjoy!

Greetings

NTX FiCO HNR CiNEFiLE AEN HUMANiSM TASTE 0MNiDVD

Details

Format                   : AVI

Format/Info               : Audio Video Interleave

File size                 : 702 MiB

Duration                 : 1h 30mn

Overall bit rate             : 1 084 Kbps

Writing application           : VirtualDubMod 1.5.10.2 (build 2540/release)

Writing library             : VirtualDubMod build 2540/release

Video

ID                     : 0

Format                   : MPEG-4 Visual

Format profile             : Advanced [email protected]

Format settings, BVOP         : 2

Format settings, QPel         : No

Format settings, GMC         : No warppoints

Format settings, Matrix       : Default (H.263)

Muxing mode               : Packed bitstream

Codec ID                 : XVID

Codec ID/Hint               : XviD

Duration                 : 1h 30mn

Bit rate                 : 921 Kbps

Width                   : 592 pixels

Height                   : 352 pixels

Display aspect ratio         : 1.682

Frame rate                 : 25.000 fps

Color space               : YUV

Chroma subsampling           : 4:2:0

Bit depth                 : 8 bits

Scan type                 : Progressive

Compression mode             : Lossy

Bits/(Pixel*Frame)           : 0.177

Stream size               : 597 MiB (85%)

Writing library             : XviD 61

Audio

ID                     : 1

Format                   : MPEG Audio

Format version             : Version 1

Format profile             : Layer 3

Mode                     : Joint stereo

Mode extension             : MS Stereo

Codec ID                 : 55

Codec ID/Hint               : MP3

Duration                 : 1h 30mn

Bit rate mode               : Variable

Bit rate                 : 150 Kbps

Minimum bit rate             : 96.0 Kbps

Channel(s)                 : 2 channels

Sampling rate               : 48.0 KHz

Compression mode             : Lossy

Stream size               : 97.0 MiB (14%)

Alignment                 : Aligned on interleaves

Interleave, duration         : 24 ms (0.60 video frame)

Interleave, preload duration     : 123 ms

Writing library             : LAME3.95

Encoding settings           : -m j -V 2 -q 3 -lowpass 19 --vbr-new -b 96

会谈电影下载:

提示:由于该资源受到用户投诉或版权方要求,已经停止链接分享

会谈电影评论

更多精彩电影