当前位置:
首页 » 剧情片 » 自闭历程

《自闭历程》(Temple Grandin)[720P]

中文名: 自闭历程

英文名: Temple GrandinIMDb: 8.4/10 (2,913 votes)

资源格式: 720P

发行日期: 2010年

导演: 米克·杰克逊 Mick Jackson

演员: 克莱尔·丹尼斯 Claire Danes ....Temple Grandin

朱莉娅·奥蒙德 Julia Ormond ....Eustacia

凯瑟琳·欧·哈拉 Catherine O'Hara ....Aunt Ann

大卫·斯特雷泽恩 David Strathairn ....Professor Carlock

布莱尔·波马尔 Blair Bomar ....Ellen.

地区: 美国

语言: 英语

自闭历程剧情介绍:

《自闭历程》海报

◎译 名 自闭历程

◎片 名 Temple Grandin

◎年 代 2010

◎国 家 美国

◎类 别 剧情/传记

◎语 言 英语

◎字 幕 中文/韩文

◎IMDB评分 8.4/10 (2,913 votes)

◎文件格式 Matroska

◎视频尺寸 1280x720

◎文件大小 4.37G

◎片 长 1h 45m 02s

◎导 演 米克·杰克逊 Mick Jackson

◎主 演 克莱尔·丹尼斯 Claire Danes ....Temple Grandin

朱莉娅·奥蒙德 Julia Ormond ....Eustacia

凯瑟琳·欧·哈拉 Catherine O'Hara ....Aunt Ann

大卫·斯特雷泽恩 David Strathairn ....Professor Carlock

布莱尔·波马尔 Blair Bomar ....Ellen

◎简 介

  天宝·葛兰汀虽然自幼患有自闭症,却拥有亚利桑那州立大学畜牧科学硕士,并于一九八八年获得伊利诺大学的畜牧科学博士学位。她是当今少数的牲畜处理设备设计、建造专家之一。她在此专业领域中,发表过上百篇学术论文,并经常性地巡回各地发表演说。本片即根据她的自传改编。

  美国动物科学家、著名自闭症患者天宝·葛兰汀(Temple Grandin),最近接受了HBO电视频道的独家专访,讲述自己的故事。HBO频道首次推出自闭症题材的故事片,她便是女主角克莱尔·丹尼斯 (Claire Danes)的原型:事业辉煌的动物科学家,却举止笨拙,缺乏社交能力,或者正是这点也让她在两个领域里都取得了巨大成就:人道主义屠宰场设计师,直言不讳的自闭症作家。

  楼主我按:这个是我能找到的最好的版本,可能是韩国人制作的,里面有外挂韩语字幕,一并发出来以表谢意。楼主我只有2M的adsl,上传仅50k,而且挂了2T左右的电影,因此速度肯定超级慢,好在楼主我7*24小时长期供源。反正只有热爱本片的人才可能忍受龟速前来下载,想到这里,楼主我嘴角露出一丝不易察觉的、欣慰的笑容。

nfo:

Temple.Grandin.2010.720p.HDTV.x264.DD2.0-yadong1985.mkv

General

Complete name : Temple.Grandin.2010.720p.HDTV.x264.DD2.0-yadong1985.mkv

Format : Matroska

File size : 4.38 GiB

Duration : 1h 45mn

Overall bit rate : 5 965 Kbps

Encoded date : UTC 2010-06-25 08:48:16

Writing application : mkvmerge v2.2.0 ('Turn It On Again') built on Mar 4 2008 12:58:26

Writing library : libebml v0.7.7 + libmatroska v0.8.1

Video #1

ID : 1

Format : AVC

Format/Info : Advanced Video Codec

Format profile : [email protected]

Format settings, CABAC : Yes

Format settings, ReFrames : 9 frames

Muxing mode : Container [email protected]

Codec ID : V_MPEG4/ISO/AVC

Duration : 1h 45mn

Bit rate : 5 654 Kbps

Nominal bit rate : 5 767 Kbps

Width : 1 280 pixels

Height : 720 pixels

Display aspect ratio : 16:9

Frame rate : 25.000 fps

Resolution : 24 bits

Colorimetry : 4:2:0

Scan type : Progressive

Bits/(Pixel*Frame) : 0.245

Stream size : 4.15 GiB (95%)

Writing library : x264 core 98 r1649 c54c47d

Encoding settings : cabac=1 / ref=9 / deblock=1:-3:-3 / analyse=0x3:0x113 / me=hex / subme=7 / psy=1 / psy_rd=1.00:0.00 / mixed_ref=1 / me_range=16 / chroma_me=1 / trellis=1 / 8x8dct=1 / cqm=0 / deadzone=21,11 / fast_pskip=1 / chroma_qp_offset=-2 / threads=3 / sliced_threads=0 / slices=4 / nr=0 / decimate=1 / interlaced=0 / constrained_intra=0 / bframes=5 / b_pyramid=2 / b_adapt=2 / b_bias=0 / direct=1 / weightb=1 / weightp=2 / keyint=250 / keyint_min=25 / scenecut=40 / intra_refresh=0 / rc_lookahead=40 / rc=2pass / mbtree=1 / bitrate=5767 / ratetol=1.0 / qcomp=0.60 / qpmin=10 / qpmax=51 / qpstep=4 / cplxblur=20.0 / qblur=0.5 / vbv_maxrate=50000 / vbv_bufsize=50000 / ip_ratio=1.40 / aq=1:1.00 / nal_hrd=none

Audio #2

ID : 2

Format : AC-3

Format/Info : Audio Coding 3

Codec ID : A_AC3

Duration : 1h 45mn

Bit rate mode : Constant

Bit rate : 192 Kbps

Channel(s) : 2 channels

Channel positions : L R

Sampling rate : 48.0 KHz

Video delay : 72ms

Stream size : 144 MiB (3%)

Language : English

自闭历程电影下载:

提示:由于该资源受到用户投诉或版权方要求,已经停止链接分享

自闭历程电影评论

更多精彩电影