当前位置:
首页 » 惊悚片 » 防毒皮

防毒皮 Anti Gas Skin 720p KOR HDRip

《防毒皮》海报

◎译名: 防毒皮 / 防毒面罩殺人狂

◎片名: 방독피

◎导演: 金曲 / 金宣

◎类型: 悬疑 / 惊悚

◎制片国家/地区: 韩国

◎语言: 韩语

◎上映日期: 2013-08-22

◎片长: 123分钟

◎主演: 郑宰植 Park Ji-hwan (박지환), Jang Liu (장리우), Jo Yeong-jin (조영진), Jung Jae-sik (정재식)

防毒皮剧情介绍:

Story about four people roam the city looking for a gas mask wearing serial killer for different reasons.

代码

General

Complete name : Anti.Gas.Skin.2013.720p.KOR.HDRip-Unknown.mp4

Format : MPEG-4

Format profile : Base Media

Codec ID : isom

File size : 2.50 GiB

Duration : 2h 3mn

Overall bit rate : 2 893 Kbps

Encoded date : UTC 1970-01-01 00:00:00

Tagged date : UTC 1970-01-01 00:00:00

Writing application : PotEncoder

Video

ID : 1

Format : AVC

Format/Info : Advanced Video Codec

Format profile : [email protected]

Format settings, CABAC : No

Format settings, ReFrames : 1 frame

Codec ID : avc1

Codec ID/Info : Advanced Video Coding

Duration : 2h 3mn

Bit rate mode : Variable

Bit rate : 2 774 Kbps

Nominal bit rate : 2 800 Kbps

Width : 1 280 pixels

Height : 720 pixels

Display aspect ratio : 16/9

Frame rate mode : Variable

Frame rate : 29.970 fps

Resolution : 24 bits

Colorimetry : 4:2:0

Scan type : Progressive

Bits/(Pixel*Frame) : 0.100

Stream size : 2.39 GiB (96%)

Writing library : x264 core 112

Encoding settings : cabac=0 / ref=1 / deblock=1:0:0 / analyse=0x1:0x111 / me=dia / subme=1 / psy=1 / psy_rd=0.00:0.00 / mixed_ref=0 / me_range=16 / chroma_me=1 / trellis=0 / 8x8dct=0 / cqm=0 / deadzone=21,11 / fast_pskip=0 / chroma_qp_offset=0 / threads=6 / sliced_threads=0 / nr=0 / decimate=1 / interlaced=0 / constrained_intra=0 / bframes=0 / weightp=0 / keyint=290 / keyint_min=25 / scenecut=0 / intra_refresh=0 / rc_lookahead=40 / rc=abr / mbtree=1 / bitrate=2800 / ratetol=1.0 / qcomp=0.60 / qpmin=10 / qpmax=51 / qpstep=4 / ip_ratio=1.40 / aq=1:1.00

Encoded date : UTC 1970-01-01 00:00:00

Tagged date : UTC 1970-01-01 00:00:00

Audio

ID : 2

Format : AAC

Format/Info : Advanced Audio Codec

Format version : Version 4

Format profile : LC

Format settings, SBR : No

Codec ID : 40

Duration : 2h 3mn

Bit rate mode : Variable

Bit rate : 114 Kbps

Channel(s) : 2 channels

Channel positions : L R

Sampling rate : 48.0 KHz

Resolution : 16 bits

Stream size : 101 MiB (4%)

Encoded date : UTC 1970-01-01 00:00:00

Tagged date : UTC 1970-01-01 00:00:00

防毒皮电影下载:

提示:推荐使用BitComet、Utorrent、QQ旋风、迅雷下载防毒皮。喜欢在线看的朋友可以把种子上传到百度网盘、115网盘,离线下载完手机电脑都可以在线看。

防毒皮电影评论

更多精彩电影