当前位置:
首页 » 惊悚片 » 录音

《录音》(Taped)[DVDRip

《录音》海报

◎译 名 录音

◎片 名 Taped

◎年 代 2012

◎国 家 荷兰

◎类 别 惊悚

◎语 言 荷兰语

◎字 幕 英文

◎IMDB评分 6/10 from 275 users

◎文件格式 XviD + MP3

◎视频尺寸 640 x 272

◎文件大小 1CD 49 x 15MB

◎片 长 80 Mins

◎导 演 Diederik Van Rooijen

◎主 演 巴里·阿茨玛 Barry Atsma

Susan Visser

Darío Levy

Ignacio Rodríguez de Anca

录音剧情介绍:

Johan (Barry Atsma) and Saar (Susan Visser) take a last attempt to save their marriage by going on vacation to Buenos Aires. They promised their daughter to film all their activities with a handheld camera. When they accidently film a horrible murder, they have to flee to sta alive...

代码

EXVID

Filled the Archives

With:

E240

SP           (C) 2009

Taped.2012.DVDRip.XviD-EXViD

EXViD aims to iNTERNAL those releases which have been lost in the archives

EXViD aims to PRE non-internal releases which have poor sources and are likely skipped by others

Subtitles: NL HI, EN FD

Date: 2012.08

Directors: Diederik Van Rooijen

Genres: Thriller

Plot

Johan (Barry Atsma) and Saar (Susan Visser) take a last attempt to save their marriage by

going on vacation to Buenos Aires. They promised their daughter to film all their activities

with a handheld camera. When they accidently film a horrible murder, they have to flee to stay

alive

Cast

Barry Atsma

Susan Visser

Daro Levy

Ignacio Rodrguez de Anca

Stats

Format                   : AVI

Format/Info               : Audio Video Interleave

File size                 : 700 MiB

Duration                 : 1h 20mn

Overall bit rate             : 1 210 Kbps

Writing application           : VirtualDubMod 1.5.10.2 (build 2540/release

Writing library             : VirtualDubMod build 2540/release

Video

ID                     : 0

Format                   : MPEG-4 Visual

Format profile             : Advanced SimpleL5

Format settings, BVOP         : Yes

Format settings, QPel         : No

Format settings, GMC         : No warppoints

Format settings, Matrix       : Default (H.263

Muxing mode               : Packed bitstream

Codec ID                 : XVID

Codec ID/Hint               : XviD

Duration                 : 1h 20mn

Bit rate                 : 1 011 Kbps

Width                   : 640 pixels

Height                   : 272 pixels

Display aspect ratio         : 2.35:1

Frame rate                 : 25.000 fps

Color space               : YUV

Chroma subsampling           : 4:2:0

Bit depth                 : 8 bits

Scan type                 : Progressive

Bits/(PixelFrame)           : 0.232

Stream size               : 585 MiB (84

Writing library             : XviD 62

Audio

ID                     : 1

Format                   : MPEG Audio

Format version             : Version 1

Format profile             : Layer 3

Mode                     : Joint stereo

Mode extension             : MS Stereo

Codec ID                 : 55

Codec ID/Hint               : MP3

Duration                 : 1h 20mn

Bit rate mode               : Variable

Bit rate                 : 192 Kbps

Channel(s)                 : 2 channels

Sampling rate               : 48.0 KHz

Stream size               : 107 MiB (15

Alignment                 : Aligned on interleaves

Interleave, duration         : 24 ms (0.60 video frame

Interleave, preload duration     : 168 ms

Writing library             : LAME3.98r

Encoding settings           : -m j -V 4 -q 2 -lowpass 18.6 --abr 192

Release notes

enjoy

Looking for

75TB Archives

DUTCH/FLEMiSH Archives

Greets: CRBS EPiSODE FiCO FLS iLS KLASSiGER LiPSYNC MADE NODLABS RUNNER SPRiNTER

ASCII DONE BY XXNFO 2oo9

RLS-Crc: 4455535459:029AED9D09

录音电影下载:

提示:由于该资源受到用户投诉或版权方要求,已经停止链接分享

录音电影评论

更多精彩电影