当前位置:
首页 » 动画片 » 猫和老鼠:请客与恶作剧

猫和老鼠:请客与恶作剧 .FS.DVDRip

《猫和老鼠:请客与恶作剧》海报

◎译 名 猫和老鼠:请客与恶作剧

◎片 名 Tom and Jerry: Tricks & Treats

◎年 代 2012

◎国 家 美国

◎类 别 动画/家庭

◎语 言 英语

◎字 幕 N/A

◎文件格式 XviD + AC3

◎视频尺寸 720 x 480

◎文件大小 1.47 GB

◎片 长 150 Mins

猫和老鼠:请客与恶作剧剧情介绍:

Tom and Jerry are in for spooks galore in this monster collection. With 20 eerie episodes plus two bonus episodes, your goodie-bag will be overflowing with fun! Tricks and treats are at every turn, from ancient Egypt to Transylvania, from creepy houses to haunted forests, the hair-raising hilarity is non-stop! Our favorite cat and mouse mingle with ghosts, mummies, werewolves and witches in these terrific tales. Of course Tom and Jerry have a bounty of tricks up their own sleeves as well! Fear not, the chase is on! It`s a scare-iffic good time for the whole family!

Encoded By .......:UnKnOwN

Runtime ..........:2:30

Language .........:English

File Size ........:1.47gb

Release Date ......... 2012

Source     ......... Your Gf

File Type   ......... Single AVI

PS3 Compatible ....... Could care less

Genre       ......... Kids

Video

ID                     : 0

Format                   : MPEG-4 Visual

Format profile             : Advanced [email protected]

Format settings, BVOP         : Yes

Format settings, QPel         : No

Format settings, GMC         : No warppoints

Format settings, Matrix       : Custom

Codec ID                 : XVID

Codec ID/Hint               : XviD

Duration                 : 1h 22mn

Bit rate                 : 1481kbps

Width                   : 720pixels

Height                   : 480pixels

Display aspect ratio         : 4:3

Frame rate                 : 29.997fps

Color space               : YUV

Chroma subsampling           : 4:2:0

Bit depth                 : 8 bits

Scan type                 : Progressive

Bits/(Pixel*Frame)           : 0.234

Stream size               : 892 MiB (86%)

Writing library             : XviD 1.2.1 (UTC 2008-12-04)

Audio

ID                     : 1

Format                   : AC3

Format/Info               : MPEG

Mode extension             : CM (complete main)

Codec ID                 : 2000

Duration                 : 2h 30mn

Bit rate mode               : Constant

Bit rate                 : 192kbps

Channel(s)                 : 2channels

Channel positions           : Front: L R

Sampling rate               : 48.0 KHz

Bit depth                 : 16 bits

Stream size               : 302 MiB

Alignment                 : Aligned on interleaves

Interleave, duration         : 42 ms (1.00 video frame)

Interleave, preload duration     : 512 ms

嬀/code]

猫和老鼠:请客与恶作剧电影下载:

提示:由于该资源受到用户投诉或版权方要求,已经停止链接分享

猫和老鼠:请客与恶作剧电影评论

更多精彩电影