当前位置:
首页 » 剧情片 » 色即是空2

《色即是空2》(Saekjeuk shigong 2)[韩语中字/720P版]

《色即是空2》海报

【英文片名】:Sex Is Zero 2

【中文片名】:色即是空2

【国家地区】:韩国

【出品年代】:2007

【影片类型】:剧情、伦理、情色、喜剧

【片 长】:112mins

【对白语言】:韩语

【视频尺寸】:1280x720

【编码格式】:x264+AC3

【影片大小】:2.18GB

【 MD 5值】:3855CBFC758E1148CD08E0D1D47B3139

【字幕类型】:中文字幕

【Imdb评分】:5.9/10   71 votes

【导 演】:尹太允

【主要演员】:任昌丁 Chang-Jung Lim

宋智孝 Ji-hyo Song

崔成国 Seong-gun Choi

申伊 Yi Shin

李诗妍 Hae-hak Lee

刘彩英 Chae-yeong Yu

李花善 Hwa-seon Lee

李相允 Sang-yun Lee

丹尼斯·康 Denis Kang .....客串

金清 Jeong Kim .....客串

河智苑 Ha Ji-won .....客串

※※※※※※※ 资料信息 ※※※※※※※

引用

我是老驴:为了经典重现,这里发布该电影的高清版,大家下载分流共享呀!

色即是空2剧情介绍:

色的探求篇

  青春不安和躁动洋溢着的校园,情绪不分昼夜地沸腾着,每晚男生寝室总会很热闹,兴奋地讨论着关于性的各种话题,处于青春朦胧期的他们对性有无限的好奇和向往。

  三年来只是亲嘴,麻木的嘴巴硬到像鸡的肾一样。

  经历困难走到一起的情侣恩植(任昌丁饰)和京雅(宋智孝饰)本来就是校园里的一大新闻--因为女方不仅是s形曲线的校花,还是游泳部里有望成为国家代表选手的一号种子,而男方只是一个没有特长、平平无奇的k-1俱乐部的主席。三年来亲密的关系只维持在亲吻的尺度上,恩植屡次想和女友发生进一步的关系都失败,无奈的他只能把血力旺盛的身体用在训练上。另一方面,京雅因太爱男友反而疏远了他。游泳部最顶尖的选手京雅和前途缥缈的恩植的恋爱不被外界看好,但是只能每天在图书馆里呆呆地观察和研究女生的恩植相信爱情。他甚至有时被女友拳脚相加的痛扁也没有怨言,被朋友戏称为21世纪最后一个纯情男。

色的实现篇

在这世界上你是我的第一个女人

但是我还没有心理上的准备

我看你不是性障碍者,而是道士!

  学业和运动兼优的成国(崔成国饰)秉着三角恋是时代的需求的信念,在游泳部的于眉、英彩之间游刃有余,品尝了禁止果的他令恩植羡慕不已。恩植就如同k-1俱乐部一样毫无生气地过着日子,作为哥们的成国和其他俱乐部成员决心帮助他实现伟大的性的愿望,出鬼点子让恩植屡屡在京雅面前表现得十分怪异,被他夸张行为吓得不轻的京雅有一次还喊了警察来才息事宁人。

色的评价篇

是不是很忙?我们首先在哪约会?

就在这啊。

那接下来去哪呢?

  越想和京雅关系进一步的恩植表现得就越糟糕,为了激发他的爱的斗志,成国故意让自己的朋友济舟假装爱慕者故意接近京雅,各方面条件优秀而且帅气的济舟对京雅展开了热烈的追求,为了得到京雅,恩植却差点失去了女友的心--爱情面临着前所未有的严峻危机。

※※※※※※※ 参数信息 ※※※※※※※

General

Format : Matroska

File size : 2.18 GiB

Duration : 1h 52mn

Overall bit rate : 2 784 Kbps

Movie name : Encoded By HDiY Team

Encoded date : UTC 2010-06-20 01:35:35

Writing application : mkvmerge v3.4.0 ('Rapunzel') 编译于 May 15 2010 09:38:20

Writing library : libebml v0.8.0 + libmatroska v0.9.0

Video #1

ID : 1

Format : AVC

Format/Info : Advanced Video Codec

Format profile : [email protected]

Format settings, CABAC : Yes

Format settings, ReFrames : 6 frames

Muxing mode : Container [email protected]

Codec ID : V_MPEG4/ISO/AVC

Duration : 1h 52mn

Bit rate : 2 537 Kbps

Nominal bit rate : 2 590 Kbps

Width : 1 280 pixels

Height : 720 pixels

Display aspect ratio : 16:9

Frame rate : 29.970 fps

Resolution : 8 bits

Colorimetry : 4:2:0

Scan type : Progressive

Bits/(Pixel*Frame) : 0.092

Stream size : 1.99 GiB (91%)

Title : [email protected]

Writing library : x264 core 80 r1376M 3feaec2

Encoding settings : cabac=1 / ref=6 / deblock=1:0:0 / analyse=0x3:0x133 / me=umh / subme=6 / psy=1 / psy_rd=1.0:0.0 / mixed_ref=1 / me_range=24 / chroma_me=1 / trellis=2 / 8x8dct=1 / cqm=1 / deadzone=21,11 / fast_pskip=0 / chroma_qp_offset=-2 / threads=8 / sliced_threads=0 / nr=0 / decimate=0 / mbaff=0 / constrained_intra=0 / bframes=6 / b_pyramid=2 / b_adapt=2 / b_bias=4 / direct=2 / wpredb=1 / wpredp=2 / keyint=250 / keyint_min=25 / scenecut=40 / rc_lookahead=40 / rc=2pass / mbtree=1 / bitrate=2590 / ratetol=0.5 / qcomp=0.60 / qpmin=10 / qpmax=51 / qpstep=4 / cplxblur=20.0 / qblur=0.5 / ip_ratio=1.40 / aq=1:1.00

Language : Korean

Audio #2

ID : 2

Format : AC-3

Format/Info : Audio Coding 3

Codec ID : A_AC3

Duration : 1h 52mn

Bit rate mode : Constant

Bit rate : 192 Kbps

Channel(s) : 2 channels

Channel positions : L R

Sampling rate : 48.0 KHz

Stream size : 154 MiB (7%)

Title : Korean

Language : Korean

Text #3

ID : 3

Format : ASS

Codec ID : S_TEXT/ASS

Codec ID/Info : Advanced Sub Station Alpha

Title : Chinese Simplified

Language : Chinese

色即是空2影片截图:

我是老驴:只发精品!!!!!!!!!

色即是空2电影下载:

提示:由于该资源受到用户投诉或版权方要求,已经停止链接分享

色即是空2电影评论

更多精彩电影