当前位置:
首页 » 惊悚片 » 汉斯与葛蕾特

汉斯与葛蕾特 Hansel.Vs.Gretel.UNRATED.HDRip.XviD

《汉斯与葛蕾特》海报

◎译 名 汉斯与葛蕾特

◎片 名 Hansel Vs. Gretel

◎年 代 2015

◎国 家 美国

◎类 别 恐怖

◎语 言 英语

◎字 幕 N/A

◎IMDB评分 (awaiting 5 votes)

◎文件格式 H264 + DD5.1

◎视频尺寸 1280 x 720

◎文件大小 1CD 2.68 GiB

◎片 长 1h 26mn

◎导 演 Ben Demaree

◎主 演 Brent Lydic ...Hansel

Lili Baross ...Gretel

Aqueela Zoll ..Willy

Jhey Castles ...Cthonia

Nanrisa Lee ...Kikimora

Riley Murphy ...Jacob

Jeremy M. Inman ...Angry Patron

Adinett Nsabimana ...Morai

Maria Olsen ...Crone

Carol Stanzione ...Bag Lady

Fawn Stone ..Officer Castiniera

汉斯与葛蕾特剧情介绍:

When Gretel falls under a dark spell and organizes a coven of witches, Hansel must find the courage to fight his twin sister and the sinister forces controlling her.

Video

ID                           : 1

Format                         : AVC

Format/Info                     : Advanced Video Codec

Format profile                   : [email protected]

Format settings, CABAC             : No

Format settings, ReFrames           : 2 frames

Codec ID                       : V_MPEG4/ISO/AVC

Duration                       : 1h 26mn

Bit rate                       : 3 964 Kbps

Width                         : 1 280 pixels

Height                         : 720 pixels

Display aspect ratio               : 16:9

Frame rate mode                   : Constant

Frame rate                     : 23.976 fps

Color space                     : YUV

Chroma subsampling                 : 4:2:0

Bit depth                       : 8 bits

Scan type                       : Progressive

Bits/(Pixel*Frame)                 : 0.179

Stream size                     : 2.40 GiB (89%)

Title                         : Hansel.Vs.Gretel.2015.720p.WEB-DL.DD5.1.H264-RARBG

Language                       : English

Default                       : Yes

Forced                         : No

Color primaries                   : BT.709

Transfer characteristics             : BT.709

Matrix coefficients               : BT.709

Color range                     : Limited

Audio

ID                           : 2

Format                         : AC-3

Format/Info                     : Audio Coding 3

Mode extension                   : CM (complete main)

Format settings, Endianness           : Big

Codec ID                       : A_AC3

Duration                       : 1h 26mn

Bit rate mode                   : Constant

Bit rate                       : 384 Kbps

Channel(s)                     : 6 channels

Channel positions                 : Front: L C R, Side: L R, LFE

Sampling rate                   : 48.0 KHz

Bit depth                       : 16 bits

Compression mode                 : Lossy

Stream size                     : 238 MiB (9%)

Title                         : Hansel.Vs.Gretel.2015.720p.WEB-DL.DD5.1.H264-RARBG

Language                       : English

Default                       : Yes

Forced                         : No

Text

ID                           : 3

Format                         : UTF-8

Codec ID                       : S_TEXT/UTF8

Codec ID/Info                   : UTF-8 Plain Text

Language                       : English

Default                       : No

Forced                         : No

Menu

00:00:00.000                     : en:1

00:07:57.000                     : en:2

00:18:05.000                     : en:3

00:25:18.000                     : en:4

00:35:50.000                     : en:5

00:47:01.000                     : en:6

00:57:25.000                     : en:7

01:09:27.000                     : en:8

01:23:34.000                     : en:9

  推荐使用Xtreme下载本资源。谢绝迅雷、easymule等流氓吸血工具下载。

您想浏览更多资源吗? *猛击这里发布资源*

《汉斯与葛蕾特》剧照-1

《汉斯与葛蕾特》剧照-2

《汉斯与葛蕾特》剧照-3

《汉斯与葛蕾特》剧照-4

《汉斯与葛蕾特》剧照-5

汉斯与葛蕾特电影下载:

提示:由于该资源受到用户投诉或版权方要求,已经停止链接分享

汉斯与葛蕾特电影评论

更多精彩电影