当前位置:
首页 » 惊悚片 » 尤物大屠杀

尤物大屠杀.Bombshell.Bloodbath..BRRip

《尤物大屠杀》海报

◎译 名 尤物大屠杀

◎片 名 Bombshell Bloodbath

◎年 代 2014

◎国 家 美国

◎类 别 恐怖

◎语 言 英语

◎上映日期 2014-01-01(USA)

◎IMDb评分 4.7/10 - 111

◎导 演 Brett Mullen

◎主 演 Alex Elliott ...Cara

Ed Ricker ...Edward

Rob Springer ...Doctor Carter

Jeff Briggs ...Bill

Samantha Mills ...Sarah

Kathy Butler Sandvoss ...Lisa Carter

Miles Snow ...Robert Summers

Matthew B. Moore ...Redneck 1

Jess Barbour ...Denise Carter

Shane Terry ...Donald

Larry Parks ...Sheriff Parks

Tom Bailey ...Redneck #2

Christopher Cozort ...Redneck 7

Owen Daly ...News Reporter

Billy Detschel ...Redneck #4

尤物大屠杀剧情介绍:

  年轻漂亮的卡拉,总似神游般逛到一阴风阵阵的庭园,一个个躯体干枯的活死人缓慢朝她涌来,而她从没搞清楚怎幺到的这里。天才科学家父亲卡特一心扑在暗无天日的实验室,他曾说一定要让妻子复活。卡拉的精神越来越不正常,直到她完全没了意识。原来,她只是父亲的一个实验品,和庭园里的僵尸们一样。

Source: ENCOUNTERS [THANKS]

General

Complete name                   : Bombshell.Bloodbath.2014.BRRip.x264-MenaceIISociety.mp4

Format                         : MPEG-4

Format profile                   : Base Media

Codec ID                       : isom

File size                       : 488 MiB

Duration                       : 1h 19mn

Overall bit rate mode               : Variable

Overall bit rate                 : 855 Kbps

Encoded date                     : UTC 2015-08-23 10:49:49

Tagged date                     : UTC 2015-08-23 10:49:49

Video

ID                           : 1

Format                         : AVC

Format/Info                     : Advanced Video Codec

Format profile                   : [email protected]

Format settings, CABAC             : Yes

Format settings, ReFrames           : 3 frames

Codec ID                       : avc1

Codec ID/Info                   : Advanced Video Coding

Duration                       : 1h 19mn

Bit rate mode                   : Variable

Bit rate                       : 727 Kbps

Maximum bit rate                 : 40.0 Mbps

Width                         : 720 pixels

Height                         : 304 pixels

Display aspect ratio               : 2.35:1

Frame rate mode                   : Constant

Frame rate                     : 23.976 fps

Color space                     : YUV

Chroma subsampling                 : 4:2:0

Bit depth                       : 8 bits

Scan type                       : Progressive

Bits/(Pixel*Frame)                 : 0.139

Stream size                     : 415 MiB (85%)

Writing library                   : x264 core 148 r2579 73ae2d1

Audio

ID                           : 2

Format                         : AAC

Format/Info                     : Advanced Audio Codec

Format profile                   : LC

Codec ID                       : 40

Duration                       : 1h 19mn

Bit rate mode                   : Variable

Bit rate                       : 123 Kbps

Maximum bit rate                 : 169 Kbps

Channel(s)                     : 2 channels

Channel positions                 : Front: L R

Sampling rate                   : 48.0 KHz

Compression mode                 : Lossy

Stream size                     : 70.2 MiB (14%)

Language                       : English

Encoded date                     : UTC 2015-08-23 10:10:43

Tagged date                     : UTC 2015-08-23 10:58:04

尤物大屠杀电影下载:

提示:由于该资源受到用户投诉或版权方要求,已经停止链接分享

尤物大屠杀电影评论

更多精彩电影