当前位置:
首页 » 动画片 » 一只老鼠的故事

一只老鼠的故事 A.Mouse.Tale.2015.1080p.WEB-DL.DD5.1.H264-FGT

复仇者联盟2百度网盘下载 中文字幕下载地址 你懂的:量子界

==========================

超值珍藏完美资源(百度网盘+迅雷+旋风):

【超清珍藏版】 ★你一定会喜欢的电影!!!★

【3D珍藏版】 ★3D电影合集(3D字幕)★

【原盘珍藏版】 ★千部电影蓝光原盘(中字)★

【终极珍藏版】 ★千部电影1080P版(中字)★

【超清珍藏版】 ★北美电影票房排行榜!!!★

==========================

《一只老鼠的故事》海报

◎译 名 一只老鼠的故事

◎片 名 a mouse tale

◎年 代 2015

◎国 家 美国

◎类 别 动画

◎IMDb评分 6.2/10 from 74 users

一只老鼠的故事剧情介绍:

  为了挽救自己的王国邪恶啮齿动物,两位年轻的老鼠去一个追求被禁止的世界去寻找一个传说中的魔晶有恢复秩序,以他们的王国的权力。

To save their kingdom from evil rodents, two young mice go on a quest to a forbidden world to find a legendary magic crystal that has the power to restore order to their kingdom.

Video

ID : 1

Format : AVC

Format/Info : Advanced Video Codec

Format profile : [email protected]

Format settings, CABAC : Yes

Format settings, ReFrames : 5 frames

Codec ID : V_MPEG4/ISO/AVC

Duration : 1h 32mn

Bit rate : 4 405 Kbps

Width : 1 912 pixels

Height : 840 pixels

Display aspect ratio : 2.25:1

Frame rate mode : Constant

Frame rate : 23.976 fps

Color space : YUV

Chroma subsampling : 4:2:0

Bit depth : 8 bits

Scan type : Progressive

Bits/(Pixel*Frame) : 0.114

Stream size : 2.84 GiB (90%)

Title : A.Mouse.Tale.2015.1080p.WEB-DL.DD5.1.H264-FGT

Language : English

Default : Yes

Forced : No

Color range : Limited

Color primaries : BT.709

Transfer characteristics : BT.709

Matrix coefficients : BT.709

Audio

ID : 2

Format : AC-3

Format/Info : Audio Coding 3

Mode extension : CM (complete main)

Format settings, Endianness : Big

Codec ID : A_AC3

Duration : 1h 32mn

Bit rate mode : Constant

Bit rate : 384 Kbps

Channel(s) : 6 channels

Channel positions : Front: L C R, Side: L R, LFE

Sampling rate : 48.0 KHz

Bit depth : 16 bits

Compression mode : Lossy

Stream size : 253 MiB (8%)

Title : A.Mouse.Tale.2015.1080p.WEB-DL.DD5.1.H264-FGT

Language : English

Default : Yes

Forced : No

《一只老鼠的故事》剧照-1《一只老鼠的故事》剧照-2

《一只老鼠的故事》剧照-3《一只老鼠的故事》剧照-4

《一只老鼠的故事》剧照-5

《一只老鼠的故事》海报

◎译 名 一只老鼠的故事

◎片 名 a mouse tale

◎年 代 2015

◎国 家 美国

◎类 别 动画

◎IMDb评分 6.2/10 from 74 users

一只老鼠的故事剧情介绍:

  为了挽救自己的王国邪恶啮齿动物,两位年轻的老鼠去一个追求被禁止的世界去寻找一个传说中的魔晶有恢复秩序,以他们的王国的权力。

To save their kingdom from evil rodents, two young mice go on a quest to a forbidden world to find a legendary magic crystal that has the power to restore order to their kingdom.

Video

ID : 1

Format : AVC

Format/Info : Advanced Video Codec

Format profile : [email protected]

Format settings, CABAC : Yes

Format settings, ReFrames : 5 frames

Codec ID : V_MPEG4/ISO/AVC

Duration : 1h 32mn

Bit rate : 4 405 Kbps

Width : 1 912 pixels

Height : 840 pixels

Display aspect ratio : 2.25:1

Frame rate mode : Constant

Frame rate : 23.976 fps

Color space : YUV

Chroma subsampling : 4:2:0

Bit depth : 8 bits

Scan type : Progressive

Bits/(Pixel*Frame) : 0.114

Stream size : 2.84 GiB (90%)

Title : A.Mouse.Tale.2015.1080p.WEB-DL.DD5.1.H264-FGT

Language : English

Default : Yes

Forced : No

Color range : Limited

Color primaries : BT.709

Transfer characteristics : BT.709

Matrix coefficients : BT.709

Audio

ID : 2

Format : AC-3

Format/Info : Audio Coding 3

Mode extension : CM (complete main)

Format settings, Endianness : Big

Codec ID : A_AC3

Duration : 1h 32mn

Bit rate mode : Constant

Bit rate : 384 Kbps

Channel(s) : 6 channels

Channel positions : Front: L C R, Side: L R, LFE

Sampling rate : 48.0 KHz

Bit depth : 16 bits

Compression mode : Lossy

Stream size : 253 MiB (8%)

Title : A.Mouse.Tale.2015.1080p.WEB-DL.DD5.1.H264-FGT

Language : English

Default : Yes

Forced : No

《一只老鼠的故事》剧照-1《一只老鼠的故事》剧照-2

《一只老鼠的故事》剧照-3《一只老鼠的故事》剧照-4

《一只老鼠的故事》剧照-5

一只老鼠的故事电影下载:

提示:由于该资源受到用户投诉或版权方要求,已经停止链接分享

一只老鼠的故事电影评论

更多精彩电影