当前位置:
首页 » 科幻片 » 平行宇宙

★★★【平行宇宙】【超高清版.1080p.web【完美中文字幕】

  平行宇宙百度网盘下载完美中文字幕下载地址1完美中文字幕下载地址2 你懂的:量子界

==========================

超值珍藏完美资源(百度网盘+迅雷+旋风):

【超清珍藏版】 ★你一定会喜欢的电影!!!★

【3D珍藏版】 ★3D电影合集(3D字幕)★

【原盘珍藏版】 ★千部电影蓝光原盘(中字)★

【终极珍藏版】 ★千部电影1080P版(中字)★

【超清珍藏版】 ★北美电影票房排行榜!!!★

==========================

《平行宇宙》海报

◎译 名 平行宇宙

◎片 名 Parallels

◎年 代 2015

◎国 家 美国

◎类 别 科幻

◎语 言 英语

◎字 幕 N/A

◎IMDB评分 6.7/10 from 2,743 users

◎片 长 83 min

◎导 演 Christopher Leone

◎主 演 Mark Hapka ...Ronan Carver

Jessica Rothe ...Beatrix Carver

Eric Jungmann ...Harold

Constance Wu ...Polly

Yorgo Constantine ...Alex Carver

Davi Jay ...Chief Stone

Michael Monks ...Tinker

Ian Casselberry ...Mike

B.J. Grogan ...Dispatch

Lorraine LeBlanc ...Linda

Han Soto ...Paramedic Sal

Marco St. John ...Promoter

Luke Hawx ...Local Savage

Kim Collins ...Middle-Aged Man

Lindsey G. Smith ...Food Stand Waitress

平行宇宙剧情介绍:

  这影片原是Fox拍摄的一部美剧的试播集,但FOX最终决定将其拍摄为为一部80分钟的电影在netflix上首映。作为电影可能挖了太多天坑,但一个男人通过一座神秘建筑进入无限的平行宇宙,遇到无限个的自己的故事很绝。

Format : AVI

Format/Info : Audio Video Interleave

Format profile : OpenDML

File size : 2.06 GiB

Duration : 1h 23mn

Overall bit rate : 3 526 Kbps

Writing library : VirtualDub build 35491/release

Video

ID : 0

Format : MPEG-4 Visual

Format profile : [email protected]

Format settings, BVOP : No

Format settings, QPel : No

Format settings, GMC : No warppoints

Format settings, Matrix : Default (H.263)

Codec ID : XVID

Codec ID/Hint : XviD

Duration : 1h 23mn

Bit rate : 3 130 Kbps

Width : 1 280 pixels

Height : 720 pixels

Display aspect ratio : 16:9

Frame rate : 23.976 fps

Color space : YUV

Chroma subsampling : 4:2:0

Bit depth : 8 bits

Scan type : Progressive

Compression mode : Lossy

Bits/(Pixel*Frame) : 0.142

Stream size : 1.83 GiB (89%)

Writing library : Lavc56.13.100

Audio

ID : 1

Format : AC-3

Format/Info : Audio Coding 3

Mode extension : CM (complete main)

Format settings, Endianness : Big

Codec ID : 2000

Duration : 1h 23mn

Bit rate mode : Constant

Bit rate : 384 Kbps

Channel(s) : 6 channels

Channel positions : Front: L C R, Side: L R, LFE

Sampling rate : 48.0 KHz

Bit depth : 16 bits

Compression mode : Lossy

Stream size : 230 MiB (11%)

Alignment : Aligned on interleaves

Interleave, duration : 42 ms (1.00 video frame)

Interleave, preload duration : 512 ms

《平行宇宙》海报

◎译 名 平行宇宙

◎片 名 Parallels

◎年 代 2015

◎国 家 美国

◎类 别 科幻

◎语 言 英语

◎字 幕 N/A

◎IMDB评分 6.7/10 from 2,743 users

◎片 长 83 min

◎导 演 Christopher Leone

◎主 演 Mark Hapka ...Ronan Carver

Jessica Rothe ...Beatrix Carver

Eric Jungmann ...Harold

Constance Wu ...Polly

Yorgo Constantine ...Alex Carver

Davi Jay ...Chief Stone

Michael Monks ...Tinker

Ian Casselberry ...Mike

B.J. Grogan ...Dispatch

Lorraine LeBlanc ...Linda

Han Soto ...Paramedic Sal

Marco St. John ...Promoter

Luke Hawx ...Local Savage

Kim Collins ...Middle-Aged Man

Lindsey G. Smith ...Food Stand Waitress

平行宇宙剧情介绍:

  这影片原是Fox拍摄的一部美剧的试播集,但FOX最终决定将其拍摄为为一部80分钟的电影在netflix上首映。作为电影可能挖了太多天坑,但一个男人通过一座神秘建筑进入无限的平行宇宙,遇到无限个的自己的故事很绝。

Format : AVI

Format/Info : Audio Video Interleave

Format profile : OpenDML

File size : 2.06 GiB

Duration : 1h 23mn

Overall bit rate : 3 526 Kbps

Writing library : VirtualDub build 35491/release

Video

ID : 0

Format : MPEG-4 Visual

Format profile : [email protected]

Format settings, BVOP : No

Format settings, QPel : No

Format settings, GMC : No warppoints

Format settings, Matrix : Default (H.263)

Codec ID : XVID

Codec ID/Hint : XviD

Duration : 1h 23mn

Bit rate : 3 130 Kbps

Width : 1 280 pixels

Height : 720 pixels

Display aspect ratio : 16:9

Frame rate : 23.976 fps

Color space : YUV

Chroma subsampling : 4:2:0

Bit depth : 8 bits

Scan type : Progressive

Compression mode : Lossy

Bits/(Pixel*Frame) : 0.142

Stream size : 1.83 GiB (89%)

Writing library : Lavc56.13.100

Audio

ID : 1

Format : AC-3

Format/Info : Audio Coding 3

Mode extension : CM (complete main)

Format settings, Endianness : Big

Codec ID : 2000

Duration : 1h 23mn

Bit rate mode : Constant

Bit rate : 384 Kbps

Channel(s) : 6 channels

Channel positions : Front: L C R, Side: L R, LFE

Sampling rate : 48.0 KHz

Bit depth : 16 bits

Compression mode : Lossy

Stream size : 230 MiB (11%)

Alignment : Aligned on interleaves

Interleave, duration : 42 ms (1.00 video frame)

Interleave, preload duration : 512 ms

平行宇宙电影下载:

提示:由于该资源受到用户投诉或版权方要求,已经停止链接分享

平行宇宙电影评论

更多精彩电影