当前位置:
首页 » 剧情片 » 颤栗汪洋2

[BD-1080P] 颤栗汪洋2 Open.Water.2.Adrift.2006.1080p.Bluray.X264-DIMENSION

《颤栗汪洋2》海报

◎译 名 颤栗汪洋2

◎片 名 Open Water 2: Adrift

◎年 代 2006

◎国 家 德国

◎类 别 剧情/惊悚

◎语 言 英语/法语

◎上映日期 2006-08-03

◎IMDb评分 5.0/10 from 12,245 users

◎豆瓣评分 6.6/10 from 830 users

◎片 长 USA: 94 分钟/UK: 95 分钟

◎导 演 Hans Horn

◎主 演 Kelly Wagner

苏珊·梅·普拉特

埃里克·迪恩 Eric Dane

颤栗汪洋2剧情介绍:

  一帮老友驾驶一艘豪华游艇出海为好友庆生,酒足饭饱之后,大家开始一个个跳入海中游泳。患有恐水症的艾米(苏珊·梅·普拉特 Susan May Pratt 饰)被抛入海水之后引起一阵恐怖,大家想赶紧把她送回船上,可是这才发现居然没人记得放下梯子。船身太高,一伙人想尽办法都不能爬上船去。此时,留在船上的只有一个婴儿,蓝天碧海对于悬浮于海面的六个老友来说变成了绝境,死亡的阴影在满是恐慌的人们之间迅速蔓延。看着好友一个个死去,一息尚存的人们仍然在寻找着最后的生机。暮色将至,一场暴风雨即将来临,是否有人能够穿越死亡的阴霾爬上游艇,生与死的较量在茫茫海面悲情上演颤栗汪洋2BT种子下载。

Video

ID : 3

Format : AVC

Format/Info : Advanced Video Codec

Format profile : [email protected]

Format settings, CABAC : Yes

Format settings, ReFrames : 5 frames

Codec ID : V_MPEG4/ISO/AVC

Duration : 1h 34mn

Bit rate : 10.5 Mbps

Width : 1 920 pixels

Height : 816 pixels

Display aspect ratio : 2.35:1

Frame rate mode : Constant

Frame rate : 23.976 fps

Color space : YUV

Chroma subsampling : 4:2:0

Bit depth : 8 bits

Scan type : Progressive

Bits/(Pixel*Frame) : 0.280

Stream size : 6.79 GiB (85%)

Writing library : x264 core 104 r1703 cd21d05

Encoding settings : cabac=1 / ref=5 / deblock=1:-1:-1 / analyse=0x3:0x113 / me=umh / subme=8 / psy=1 / psy_rd=1.00:0.00 / mixed_ref=1 / me_range=16 / chroma_me=1 / trellis=1 / 8x8dct=1 / cqm=0 / deadzone=21,11 / fast_pskip=0 / chroma_qp_offset=-2 / threads=12 / sliced_threads=0 / nr=0 / decimate=1 / interlaced=0 / constrained_intra=0 / bframes=3 / b_pyramid=2 / b_adapt=1 / b_bias=0 / direct=3 / weightb=1 / open_gop=0 / weightp=2 / keyint=250 / keyint_min=23 / scenecut=40 / intra_refresh=0 / rc_lookahead=40 / rc=2pass / mbtree=1 / bitrate=10513 / ratetol=1.0 / qcomp=0.60 / qpmin=10 / qpmax=51 / qpstep=4 / cplxblur=20.0 / qblur=0.5 / ip_ratio=1.40 / aq=1:1.10

Language : English

Default : No

Forced : No

Audio

ID : 1

Format : DTS

Format/Info : Digital Theater Systems

Mode : 16

Format settings, Endianness : Big

Codec ID : A_DTS

Duration : 1h 34mn

Bit rate mode : Constant

Bit rate : 1 509 Kbps

Channel(s) : 6 channels

Channel positions : Front: L C R, Side: L R, LFE

Sampling rate : 48.0 KHz

Bit depth : 16 bits

Compression mode : Lossy

Stream size : 1 021 MiB (13%)

Default : Yes

Forced : No

Text

ID : 2

Format : UTF-8

Codec ID : S_TEXT/UTF8

Codec ID/Info : UTF-8 Plain Text

Default : Yes

Forced : No

《颤栗汪洋2》剧照-1《颤栗汪洋2》剧照-2

《颤栗汪洋2》剧照-3《颤栗汪洋2》剧照-4

《颤栗汪洋2》剧照-5《颤栗汪洋2》剧照-6

颤栗汪洋2电影下载:

提示:由于该资源受到用户投诉或版权方要求,已经停止链接分享

颤栗汪洋2电影评论

更多精彩电影