当前位置:
首页 » 惊悚片 » 来自阴阳界

[WEB-720P][更 早]来自阴阳界/躲藏 Hideaway.1995.720p.WEB-DL.DD5.1.H264-FGT

《来自阴阳界》海报

◎译 名 来自阴阳界/躲藏

◎片 名 Hideaway

◎年 代 1995

◎国 家 美国

◎类 别 奇幻/恐怖/惊悚

◎语 言 英语

◎上映日期 1995-03-03

◎IMDb评分 5.3/10 from 4,887 users

◎豆瓣评分 6.1/10 from 33 users

◎片 长 106 分钟

◎导 演 Brett Leonard

◎主 演 Michael Jame

Hiro Kanagaw

Joely Collin

Jeremy Sisto

来自阴阳界剧情介绍:

  哈奇带着妻子林赛和女儿里贾纳正驾车走在路上,突然与一辆大卡车相撞,坠入山谷的溪水中。林赛和里贾纳幸免于难,哈奇被救上岸后已经断气,但他还是被送到附近的医院。多专职医生妙手回春,哈奇又走出了鬼门关。但是,一切可怕的事情也就从这一刻开始了。复生的哈奇变得判若两人,原来和蔼可亲,现在却残暴异常,并且无法控制自己。后来哈奇终于知道,他身上这股邪恶的力量来自另一位和他有过类似死而复生经验的人萨瓦哥,他是个心理变态的杀人犯,冥冥中的一股力量能使两人心灵相通。不但哈奇看到萨瓦哥所做的事,萨瓦哥也看到哈奇身边有林赛和里贾纳来自阴阳界迅雷下载--

来自阴阳界BT下载

Video

ID : 1

Format : AVC

Format/Info : Advanced Video Codec

Format profile : [email protected]

Format settings, CABAC : No

Format settings, ReFrames : 2 frames

Codec ID : V_MPEG4/ISO/AVC

Duration : 1h 45mn

Bit rate : 3 904 Kbps

Width : 1 280 pixels

Height : 538 pixels

Display aspect ratio : 2.40:1

Frame rate mode : Constant

Frame rate : 23.976 fps

Color space : YUV

Chroma subsampling : 4:2:0

Bit depth : 8 bits

Scan type : Progressive

Bits/(Pixel*Frame) : 0.236

Stream size : 2.89 GiB (89%)

Title : Hideaway.1995.720p.WEB-DL.DD5.1.H264-FGT

Language : English

Default : Yes

Forced : No

Color range : Limited

Color primaries : BT.709

Transfer characteristics : BT.709

Matrix coefficients : BT.709

Audio

ID : 2

Format : AC-3

Format/Info : Audio Coding 3

Mode extension : CM (complete main)

Format settings, Endianness : Big

Codec ID : A_AC3

Duration : 1h 45mn

Bit rate mode : Constant

Bit rate : 384 Kbps

Channel(s) : 6 channels

Channel positions : Front: L C R, Side: L R, LFE

Sampling rate : 48.0 KHz

Compression mode : Lossy

Stream size : 291 MiB (9%)

Title : Hideaway.1995.720p.WEB-DL.DD5.1.H264-FGT

Language : English

Default : Yes

Forced : No

Text

ID : 3

Format : UTF-8

Codec ID : S_TEXT/UTF8

Codec ID/Info : UTF-8 Plain Text

Language : English

Default : Yes

Forced : No

Menu

00:00:00.000 : en:Start

00:05:45.000 : en:Harrison Family

00:10:02.000 : en:Sideswiped

00:12:11.000 : enrowned

00:14:48.000 : en:Hatch crosses over

00:22:27.000 : en:Violent vision

00:28:03.000 : en:Manhunt Launched

00:29:55.000 : en:Harrison's Antiques

00:33:41.000 : en:Another violent vision

00:36:26.000 : en:Lagoon Drive

00:39:37.000 : en:Visions of Regina

00:45:04.000 : en:Zoe

00:46:47.000 : en:Vassago's hideaway

00:50:56.000 : en:Blue Skies Motel

00:56:50.000 : en:Morton Redlow

00:59:32.000 : en:Rose Orwetto

01:06:37.000 : en:Vassago visits Rose

01:10:36.000 : en:Room 107

01:16:36.000 : en:Jeremy on tape

01:19:10.000 : en:With Marian

01:24:11.000 : en:Kidnapping Regina

01:26:50.000 : en:Burning vision

01:28:26.000 : en:Wonderland

01:30:26.000 : en:Land of the Dead

01:31:29.000 : en:Blinded by the light

01:34:11.000 : en:Fighting for Regina

01:36:51.000 : enowers of Light & Dark

01:44:00.000 : en:Alternate Ending

《来自阴阳界》剧照-1《来自阴阳界》剧照-2

《来自阴阳界》剧照-3《来自阴阳界》剧照-4

《来自阴阳界》剧照-5《来自阴阳界》剧照-6

来自阴阳界电影下载:

提示:推荐使用BitComet、Utorrent、QQ旋风、迅雷下载来自阴阳界。喜欢在线看的朋友可以把种子上传到百度网盘、115网盘,离线下载完手机电脑都可以在线看。

来自阴阳界电影评论

更多精彩电影