当前位置:
首页 » 爱情片 » 爱的承诺

[BD-720P]爱的承诺 Committed.2014.720p.BluRay.x264.DTS-RARBG

《爱的承诺》海报

◎译 名 爱的承诺

◎片 名 Committed

◎年 代 2014

◎国 家 塞浦路斯

◎类 别 喜剧/爱情

◎语 言 英语/希腊语

◎IMDb评分 6.2/10 from 110 users

◎豆瓣评分 7.6/10 from 21 users

◎片 长 93 min

◎导 演 Stelana Kliris

◎主 演 Melia Kreiling

Orestes Sophocleous

爱的承诺剧情介绍:

  一个饱受压力的男人和一名落跑新娘,一趟奇妙的旅程即将展开--

Video

ID : 1

Format : AVC

Format/Info : Advanced Video Codec

Format profile : [email protected]

Format settings, CABAC : Yes

Format settings, ReFrames : 4 frames

Codec ID : V_MPEG4/ISO/AVC

Duration : 1h 29mn

Bit rate : 5 500 Kbps

Width : 1 280 pixels

Height : 550 pixels

Display aspect ratio : 2.35:1

Original display aspect ratio : 2.35:1

Frame rate mode : Constant

Frame rate : 23.976 fps

Color space : YUV

Chroma subsampling : 4:2:0

Bit depth : 8 bits

Scan type : Progressive

Bits/(Pixel*Frame) : 0.326

Stream size : 3.30 GiB (86%)

Title : Committed.2014.720p.BluRay.x264.DTS-RARBG

Writing library : x264 core 142 r2495 6a301b6

Encoding settings : cabac=1 / ref=4 / deblock=1:-2:-2 / analyse=0x3:0x113 / me=umh / subme=7 / psy=1 / psy_rd=1.00:0.15 / mixed_ref=1 / me_range=16 / chroma_me=1 / trellis=1 / 8x8dct=1 / cqm=0 / deadzone=21,11 / fast_pskip=1 / chroma_qp_offset=-3 / threads=12 / lookahead_threads=3 / sliced_threads=0 / nr=0 / decimate=1 / interlaced=0 / bluray_compat=0 / constrained_intra=0 / bframes=3 / b_pyramid=2 / b_adapt=2 / b_bias=0 / direct=3 / weightb=1 / open_gop=0 / weightp=2 / keyint=250 / keyint_min=25 / scenecut=40 / intra_refresh=0 / rc_lookahead=50 / rc=abr / mbtree=1 / bitrate=5500 / ratetol=1.0 / qcomp=0.60 / qpmin=0 / qpmax=69 / qpstep=4 / vbv_maxrate=31250 / vbv_bufsize=31250 / nal_hrd=none / filler=0 / ip_ratio=1.40 / aq=1:1.00

Language : English

Default : Yes

Forced : No

Audio

ID : 2

Format : DTS

Format/Info : Digital Theater Systems

Mode : 16

Format settings, Endianness : Big

Codec ID : A_DTS

Duration : 1h 29mn

Bit rate mode : Constant

Bit rate : 768 Kbps

Channel(s) : 6 channels

Channel positions : Front: L C R, Side: L R, LFE

Sampling rate : 48.0 KHz

Bit depth : 24 bits

Compression mode : Lossy

Stream size : 490 MiB (12%)

Title : Committed.2014.720p.BluRay.x264.DTS-RARBG

Language : English

Default : Yes

Forced : No

Menu

00:00:00.000 : en:00:00:00.000

00:02:42.162 : en:00:02:42.162

00:09:36.576 : en:00:09:36.576

00:20:17.216 : en:00:20:17.216

00:28:19.698 : en:00:28:19.698

00:35:14.112 : en:00:35:14.112

00:45:41.739 : en:00:45:41.739

00:52:14.131 : en:00:52:14.131

01:00:26.623 : en:01:00:26.623

01:10:12.208 : en:01:10:12.208

01:23:18.994 : en:01:23:18.994

01:27:09.224 : en:01:27:09.224

《爱的承诺》剧照-1《爱的承诺》剧照-2

《爱的承诺》剧照-3《爱的承诺》剧照-4

《爱的承诺》剧照-5《爱的承诺》剧照-6

爱的承诺电影下载:

提示:由于该资源受到用户投诉或版权方要求,已经停止链接分享

爱的承诺电影评论

更多精彩电影