当前位置:
首页 » 动作片 » 危险人物

危险人物A.Dangerous.Man.2009.1080p.BluRay.x264.DTS-FGT6.56GB

危险人物 A.Dangerous.Man.2009.1080p.BluRay.x264.DTS-FGT 6.56GB

演员:Steven Seagal Hugo Steele Byron Mann

导演: Keoni Waxman 地区: 美国集数: 0集年代: 2009时间: 94分钟豆瓣评分: 5.2

  在蒙冤入狱服刑15年之后,Shane Daniels被释放了,并得到来自亚利桑那州的道歉。重获自由还没几个小时,他就目击了一起非法钻石交易,并发生了枪战,墨西哥黑手党和当地警方都伤亡惨重,只留下一个吓坏了的小女孩,还有一袋钱。在接下来的惊悚之旅中,Shane Danie ls必须离开这个腐败的城镇并把女孩带到安全的地方。

◎译 名 危险人物

◎片 名 A Dangerous Man

◎年 代 2009

◎国 家 美国

◎类 别 动作/惊悚

◎语 言 英语

◎IMDb评分 5.1/10 from 3,273 users

◎豆瓣评分 5.2/10 from 357 users

◎片 长 94 分钟

◎导 演 Keoni Waxman

◎主 演 Steven Seagal

Hugo Steele

Byron Mann

危险人物剧情介绍:

  在蒙冤入狱服刑15年之后,Shane Daniels被释放了,并得到来自亚利桑那州的道歉。重获自由还没几个小时,他就目击了一起非法钻石交易,并发生了枪战,墨西哥黑手党和当地警方都伤亡惨重,只留下一个吓坏了的小女孩,还有一袋钱。在接下来的惊悚之旅中,Shane Danie ls必须离开这个腐败的城镇并把女孩带到安全的地方。

ideo

ID : 1

Format : AVC

Format/Info : Advanced Video Codec

Format profile : [email protected]

Format settings, CABAC : Yes

Format settings, ReFrames : 4 frames

Codec ID : V_MPEG4/ISO/AVC

Duration : 1h 30mn

Bit rate : 8 814 Kbps

Width : 1 920 pixels

Height : 1 040 pixels

Display aspect ratio : 1.85:1

Frame rate mode : Constant

Frame rate : 23.976 fps

Color space : YUV

Chroma subsampling : 4:2:0

Bit depth : 8 bits

Scan type : Progressive

Bits/(Pixel*Frame) : 0.184

Stream size : 5.47 GiB (83%)

Writing library : x264 core 98 r1649 c54c47d

Encoding settings : cabac=1 / ref=4 / deblock=1:0:0 / analyse=0x3:0x133 / me=umh / subme=7 / psy=1 / psy_rd=1.00:0.00 / mixed_ref=1 / me_range=16 / chroma_me=1 / trellis=1 / 8x8dct=1 / cqm=0 / deadzone=21,11 / fast_pskip=0 / chroma_qp_offset=-2 / threads=12 / sliced_threads=0 / nr=0 / decimate=1 / interlaced=0 / constrained_intra=0 / bframes=3 / b_pyramid=2 / b_adapt=1 / b_bias=0 / direct=1 / weightb=1 / weightp=2 / keyint=250 / keyint_min=25 / scenecut=40 / intra_refresh=0 / rc_lookahead=40 / rc=2pass / mbtree=1 / bitrate=8814 / ratetol=1.0 / qcomp=0.60 / qpmin=10 / qpmax=51 / qpstep=4 / cplxblur=20.0 / qblur=0.5 / ip_ratio=1.40 / aq=1:1.00

Language : English

Default : Yes

Forced : No

Audio

ID : 2

Format : DTS

Format/Info : Digital Theater Systems

Mode : 16

Format settings, Endianness : Big

Codec ID : A_DTS

Duration : 1h 30mn

Bit rate mode : Constant

Bit rate : 1 509 Kbps

Channel(s) : 6 channels

Channel positions : Front: L C R, Side: L R, LFE

Sampling rate : 48.0 KHz

Bit depth : 24 bits

Compression mode : Lossy

Stream size : 982 MiB (15%)

Language : English

Default : Yes

Forced : No

《危险人物》海报《危险人物》剧照-1

《危险人物》剧照-2《危险人物》剧照-3

《危险人物》剧照-4《危险人物》剧照-5

  温馨提示:您正在浏览的"《危险人物》BT种子下载"的剧情介绍来自于[www.92np.com-就爱那片儿],如果您喜欢本站,请推荐给您的朋友,谢谢您的支持! 最后更新:2015年08月22日

危险人物电影下载:

提示:由于该资源受到用户投诉或版权方要求,已经停止链接分享

危险人物电影评论

更多精彩电影