当前位置:
首页 » 动作片 » 天罡星下凡

天罡星下凡_无情的复仇.Raise.Hell.2010.1080p.BluRay.x264.DTS-FGT6.56GB

演员:史蒂文·席格 Darren Shahlavi Zoltan Butuc

导演: Keoni Waxman 地区: 美国集数: 0集年代: 2010时间: 98分钟豆瓣评分: 5.0

《天罡星下凡》海报

  一名精干的国际刑警组织探员被派往东欧地区,带领着一只专干小分队去整个巴尔干地区调查相关贩卖枪支走私案。在一次调查俄国枪支经销商的过程中,小分队不幸与吉普赛黑帮交火并发生了街头驳火枪战,其中一名队员不幸牺牲。探员心中充满了怒火,为了替兄弟报仇,他上演了一场惊心动魄的复仇之战。

◎译 名 天罡星下凡/无情的复仇

◎片 名 Born to Raise Hell

◎年 代 2010

◎国 家 美国

◎类 别 动作

◎语 言 英语

◎上映日期 2010-10-19

◎IMDb评分 4.5/10 from 2,863 users

◎豆瓣评分 5.0/10 from 444 users

◎片 长 98 分钟

◎导 演 Keoni Waxman

◎主 演 Steven Seagal

Darren Shahlavi

Zoltan Butuc

Video

ID : 1

Format : AVC

Format/Info : Advanced Video Codec

Format profile : [email protected]

Format settings, CABAC : Yes

Format settings, ReFrames : 4 frames

Codec ID : V_MPEG4/ISO/AVC

Duration : 1h 36mn

Bit rate : 8 256 Kbps

Width : 1 920 pixels

Height : 1 040 pixels

Display aspect ratio : 1.85:1

Frame rate mode : Constant

Frame rate : 23.976 fps

Color space : YUV

Chroma subsampling : 4:2:0

Bit depth : 8 bits

Scan type : Progressive

Bits/(Pixel*Frame) : 0.172

Stream size : 5.41 GiB (83%)

Writing library : x264 core 107 r1745 4785e8e

Encoding settings : cabac=1 / ref=4 / deblock=1:0:0 / analyse=0x3:0x133 / me=umh / subme=9 / psy=1 / psy_rd=1.00:0.00 / mixed_ref=1 / me_range=16 / chroma_me=1 / trellis=1 / 8x8dct=1 / cqm=0 / deadzone=21,11 / fast_pskip=0 / chroma_qp_offset=-2 / threads=12 / sliced_threads=0 / nr=0 / decimate=1 / interlaced=0 / constrained_intra=0 / bframes=3 / b_pyramid=2 / b_adapt=1 / b_bias=0 / direct=1 / weightb=1 / open_gop=0 / weightp=2 / keyint=250 / keyint_min=23 / scenecut=40 / intra_refresh=0 / rc_lookahead=40 / rc=2pass / mbtree=1 / bitrate=8256 / ratetol=1.0 / qcomp=0.60 / qpmin=10 / qpmax=51 / qpstep=4 / cplxblur=20.0 / qblur=0.5 / ip_ratio=1.40 / aq=1:1.00

Language : English

Default : Yes

Forced : No

Audio

ID : 2

Format : DTS

Format/Info : Digital Theater Systems

Mode : 16

Format settings, Endianness : Big

Codec ID : A_DTS

Duration : 1h 36mn

Bit rate mode : Constant

Bit rate : 1 509 Kbps

Channel(s) : 6 channels

Channel positions : Front: L C R, Side: L R, LFE

Sampling rate : 48.0 KHz

Bit depth : 24 bits

Compression mode : Lossy

Stream size : 1.01 GiB (15%)

Language : English

Default : Yes

Forced : No

  温馨提示:您正在浏览的"《天罡星下凡》BT种子下载"的剧情介绍来自于[www.92np.com-就爱那片儿],如果您喜欢本站,请推荐给您的朋友,谢谢您的支持! 最后更新:2015年08月22日

天罡星下凡电影下载:

提示:由于该资源受到用户投诉或版权方要求,已经停止链接分享

天罡星下凡电影评论

更多精彩电影