当前位置:
首页 » 惊悚片 » 取款机杀人夜

取款机杀人夜_提款机杀人夜_自动取款机ATM.2012.1080p.BluRay.x264.DTS-FGT4.55GB

取款机杀人夜_提款机杀人夜_自动取款机 ATM.2012.1080p.BluRay.x264.DTS-FGT 4.55GB

演员:爱丽丝·伊芙 乔希·佩克 布莱恩·格拉格提 阿隆·休斯 奥马尔·可汗 Will Woytowich 格伦·汤普森

导演: David Brooks 地区: 美国,加拿大集数: 0集年代: 2012时间: 90分钟豆瓣评分: 4.6

《取款机杀人夜》海报

  一年一度的圣诞佳节终于到来,在狂欢派对上,投资公司职员大卫(布瑞恩·杰拉夫迪 Brian Geraghty 饰)终于鼓起勇气向刚刚辞职的美丽女职员艾蜜莉(艾丽丝·伊芙 Alice Eve 饰)搭话,聚会中途,二人驱车和他们的朋友科瑞(乔什·派克 Josh Peck 饰)一同返回。此时已近深夜,希望买点儿什么吃的的三个人进入某自动提款机服务站取钱,可是正待出门时却发现一个神秘阴森的身影站在外面,后者更在众目睽睽之下杀了一个陌生的流浪汉。

  大卫等人就这样被困在方寸之间,看似随机的袭击事件,一切似乎又尽在神秘之人的掌控之中,他们最终能否逃脱?还是成为恐怖袭击者的牺牲品?

◎译 名 取款机杀人夜/提款机杀人夜/自动取款机

◎片 名 ATM

◎年 代 2012

◎国 家 美国/加拿大

◎类 别 惊悚/恐怖

◎语 言 英语

◎上映日期 2012-04-06(美国)

◎IMDb评分 4.7/10 from 17,301 users

◎豆瓣评分 4.6/10 from 1,814 users

◎片 长 90分钟

◎导 演 David Brooks

◎主 演 爱丽丝·伊芙 Alice Eve

乔希·佩克 Josh Peck

布莱恩·格拉格提 Brian Geraghty

阿隆·休斯 Aaron Hughes

奥马尔·可汗 Omar Khan

Will Woytowich

格伦·汤普森 Glen Thompson

Video

ID : 1

Format : AVC

Format/Info : Advanced Video Codec

Format profile : [email protected]

Format settings, CABAC : Yes

Format settings, ReFrames : 4 frames

Codec ID : V_MPEG4/ISO/AVC

Duration : 1h 30mn

Bit rate : 5 700 Kbps

Width : 1 920 pixels

Height : 1 036 pixels

Display aspect ratio : 1.85:1

Frame rate mode : Constant

Frame rate : 23.976 fps

Color space : YUV

Chroma subsampling : 4:2:0

Bit depth : 8 bits

Scan type : Progressive

Bits/(Pixel*Frame) : 0.120

Stream size : 3.50 GiB (77%)

Writing library : x264 core 122 r2184 5c85e0a

Encoding settings : cabac=1 / ref=4 / deblock=1:-3:-3 / analyse=0x3:0x113 / me=umh / subme=11 / psy=1 / psy_rd=1.20:0.20 / mixed_ref=1 / me_range=24 / chroma_me=1 / trellis=2 / 8x8dct=1 / cqm=0 / deadzone=21,11 / fast_pskip=1 / chroma_qp_offset=-3 / threads=6 / sliced_threads=0 / nr=0 / decimate=1 / interlaced=0 / bluray_compat=0 / constrained_intra=0 / bframes=9 / b_pyramid=2 / b_adapt=2 / b_bias=0 / direct=3 / weightb=1 / open_gop=0 / weightp=2 / keyint=250 / keyint_min=23 / scenecut=40 / intra_refresh=0 / rc_lookahead=60 / rc=2pass / mbtree=1 / bitrate=5700 / ratetol=1.0 / qcomp=0.60 / qpmin=0 / qpmax=69 / qpstep=4 / cplxblur=20.0 / qblur=0.5 / ip_ratio=1.40 / aq=1:1.00

Language : English

Default : Yes

Forced : No

Audio

ID : 2

Format : DTS

Format/Info : Digital Theater Systems

Mode : 16

Format settings, Endianness : Big

Codec ID : A_DTS

Duration : 1h 30mn

Bit rate mode : Constant

Bit rate : 1 509 Kbps

Channel(s) : 6 channels

Channel positions : Front: L C R, Side: L R, LFE

Sampling rate : 48.0 KHz

Bit depth : 24 bits

Compression mode : Lossy

Stream size : 974 MiB (21%)

Language : English

Default : Yes

Forced : No

Text

ID : 3

Format : UTF-8

Codec ID : S_TEXT/UTF8

Codec ID/Info : UTF-8 Plain Text

Language : English

Default : No

Forced : No

  温馨提示:您正在浏览的"《取款机杀人夜》BT种子下载"的剧情介绍来自于[www.92np.com-就爱那片儿],如果您喜欢本站,请推荐给您的朋友,谢谢您的支持! 最后更新:2015年08月22日

取款机杀人夜电影下载:

提示:推荐使用BitComet、Utorrent、QQ旋风、迅雷下载取款机杀人夜。喜欢在线看的朋友可以把种子上传到百度网盘、115网盘,离线下载完手机电脑都可以在线看。

取款机杀人夜电影评论

更多精彩电影