当前位置:
首页 » 惊悚片 » 致命魔术

致命魔术_顶尖对决_死亡魔法The.Prestige.2006.1080p.BluRay.x264.DTS-FGT10.22GB

致命魔术_顶尖对决_死亡魔法 The.Prestige.2006.1080p.BluRay.x264.DTS-FGT 10.22GB

演员:克里斯蒂安·贝尔 休·杰克曼 迈克尔·凯恩 斯嘉丽·约翰逊 丽贝卡·豪尔 大卫·鲍伊 安迪·瑟金斯

导演: 克里斯托弗·诺兰 地区: 美国,英国集数: 0集年代: 2006时间: 127分钟豆瓣评分: 8.8

《致命魔术》海报

  19世纪末,人们对科学文明还不是认识得太过清楚,于是,安吉尔(休?杰克曼Hugh Jackman饰)和伯登(克里斯蒂安?贝尔Christian Bale饰)的魔术,成为了伦敦城内的神奇人物。安吉尔出身贵族,魔术手段华丽丰富,是富人圈子里的表演常客。而伯登即使出身平平,争强好胜的心智和充满创造力的魔术技巧,却也令他有了名气。两人自小本是要好的伙伴,然而,现在魔术界二人各有领地,并且都有野心想成为音乐大厅里的顶级魔术师,一番明争暗斗如箭在弦上。

  伯登掌握了精彩的分身术,叫座又叫好。而安吉尔见情势不妙,搬来科学家助阵--他发明的交流电有无穷魔力,保证让观众目瞪口呆。二人出招接招,一来一往,争斗在剧烈升级,友谊和道德都被抛诸脑后,一场血案在悄悄酝酿。

◎译 名 致命魔术/顶尖对决(台)/死亡魔法(港)/魔高一丈/魔道争锋

◎片 名 The Prestige

◎年 代 2006

◎国 家 美国/英国

◎类 别 剧情/悬疑/惊悚

◎语 言 英语

◎上映日期 2006-10-20(美国)

◎IMDb评分 8.5/10 from 738,985 users

◎豆瓣评分 8.8/10 from 254,403 users

◎片 长 130分钟

◎导 演 克里斯托弗·诺兰 Christopher Nolan

◎主 演 克里斯蒂安·贝尔 Christian Bale

休·杰克曼 Hugh Jackman

迈克尔·凯恩 Michael Caine

斯嘉丽·约翰逊 Scarlett Johansson

丽贝卡·豪尔 Rebecca Hall

大卫·鲍伊 David Bowie

安迪·塞基斯 Andy Serkis

◎获奖情况

第79届奥斯卡金像奖 (2007)

最佳摄影(提名) 沃利·菲斯特

最佳美术指导(提名) Nathan Crowley / Julie Ochipinti

Video

ID : 1

Format : AVC

Format/Info : Advanced Video Codec

Format profile : [email protected]

Format settings, CABAC : Yes

Format settings, ReFrames : 5 frames

Codec ID : V_MPEG4/ISO/AVC

Duration : 2h 10mn

Bit rate : 9 700 Kbps

Width : 1 920 pixels

Height : 818 pixels

Display aspect ratio : 2.35:1

Frame rate mode : Constant

Frame rate : 23.976 fps

Color space : YUV

Chroma subsampling : 4:2:0

Bit depth : 8 bits

Scan type : Progressive

Bits/(Pixel*Frame) : 0.258

Stream size : 8.64 GiB (85%)

Writing library : x264 core 67 r1120M 8544346

Encoding settings : cabac=1 / ref=5 / deblock=1:-3:-3 / analyse=0x3:0x133 / me=umh / subme=9 / psy_rd=1.2:0.0 / mixed_ref=1 / me_range=32 / chroma_me=1 / trellis=2 / 8x8dct=1 / cqm=0 / deadzone=21,11 / chroma_qp_offset=-2 / threads=6 / nr=0 / decimate=1 / mbaff=0 / bframes=10 / b_pyramid=1 / b_adapt=2 / b_bias=0 / direct=3 / wpredb=1 / keyint=250 / keyint_min=25 / scenecut=40 / rc=2pass / bitrate=9700 / ratetol=1.0 / qcomp=0.60 / qpmin=10 / qpmax=51 / qpstep=4 / cplxblur=20.0 / qblur=0.5 / ip_ratio=1.40 / pb_ratio=1.30 / aq=1:0.80

Language : English

Default : Yes

Forced : No

Audio

ID : 2

Format : DTS

Format/Info : Digital Theater Systems

Mode : 16

Format settings, Endianness : Big

Codec ID : A_DTS

Duration : 2h 10mn

Bit rate mode : Constant

Bit rate : 1 510 Kbps

Channel(s) : 6 channels

Channel positions : Front: L C R, Side: L R, LFE

Sampling rate : 48.0 KHz

Bit depth : 24 bits

Compression mode : Lossy

Stream size : 1.38 GiB (13%)

Language : English

Default : Yes

Forced : No

  温馨提示:您正在浏览的"《致命魔术》BT种子下载"的剧情介绍来自于[www.92np.com-就爱那片儿],如果您喜欢本站,请推荐给您的朋友,谢谢您的支持! 最后更新:2015年08月22日

致命魔术电影下载:

提示:由于该资源受到用户投诉或版权方要求,已经停止链接分享

致命魔术电影评论

更多精彩电影