当前位置:
首页 » 爱情片 » 永久记录

永久记录Permanent.Record.1988.720p.HDTV.x264.DD2.0-FGT3.64GB

永久记录 Permanent.Record.1988.720p.HDTV.x264.DD2.0-FGT 3.64GB

演员:Keanu Reeves

导演: Marisa Silver 地区: 美国集数: 0集年代: 1988时间: 91分钟豆瓣评分: 7.6

《永久记录》海报

◎译 名 永久记录

◎片 名 Permanent Record

◎年 代 1988

◎国 家 美国

◎类 别 剧情/音乐/爱情

◎语 言 英语

◎上映日期 1988-04-22

◎IMDb评分 6.3/10 from 1,376 users

◎豆瓣评分 7.6/10 from 83 users

◎片 长 91 分钟/West Germany: 88 分钟(video)

◎导 演 Marisa Silver

◎主 演 Keanu Reeves

永久记录剧情介绍:

When smart, musically talented and popular high school student David Sinclair unexpectedly commits suicide, shock and unanswered questions reverberate throughout the school. David was perfect, so where did he or his friends go wrong? His best friend, Chris Townsend (Reeves), struggles with his friend's death and asks himself if he too is capable of self-destruction.

Video

ID : 1

Format : AVC

Format/Info : Advanced Video Codec

Format profile : [email protected]

Format settings, CABAC : Yes

Format settings, ReFrames : 9 frames

Codec ID : V_MPEG4/ISO/AVC

Duration : 1h 27mn

Bit rate : 5 424 Kbps

Width : 1 280 pixels

Height : 720 pixels

Display aspect ratio : 16:9

Frame rate mode : Constant

Frame rate : 25.000 fps

Color space : YUV

Chroma subsampling : 4:2:0

Bit depth : 8 bits

Scan type : Progressive

Bits/(Pixel*Frame) : 0.235

Stream size : 3.33 GiB (92%)

Title : Permanent.Record.1988.720p.HDTV.x264.DD2.0-FGT

Writing library : x264 core 122 r2184kMod 5c85e0a

Encoding settings : cabac=1 / ref=9 / deblock=1:-3:-3 / analyse=0x3:0x133 / me=umh / subme=11 / psy=1 / fade_compensate=0.00 / psy_rd=1.25:0.00 / mixed_ref=1 / me_range=32 / chroma_me=1 / trellis=2 / 8x8dct=1 / cqm=0 / deadzone=21,11 / fast_pskip=0 / chroma_qp_offset=-2 / threads=6 / sliced_threads=0 / nr=0 / decimate=0 / interlaced=0 / bluray_compat=0 / constrained_intra=0 / bframes=8 / b_pyramid=2 / b_adapt=2 / b_bias=0 / direct=3 / weightb=1 / open_gop=0 / weightp=2 / keyint=250 / keyint_min=25 / scenecut=40 / intra_refresh=0 / rc_lookahead=40 / rc=crf / mbtree=1 / crf=18.0000 / qcomp=0.70 / qpmin=0 / qpmax=69 / qpstep=4 / ip_ratio=1.30 / aq=1:0.60

Language : English

Default : Yes

Forced : No

Audio

ID : 2

Format : AC-3

Format/Info : Audio Coding 3

Mode extension : CM (complete main)

Format settings, Endianness : Big

Codec ID : A_AC3

Duration : 1h 27mn

Bit rate mode : Constant

Bit rate : 384 Kbps

Channel(s) : 2 channels

Channel positions : Front: L R

Sampling rate : 48.0 KHz

Compression mode : Lossy

Stream size : 241 MiB (6%)

Title : Permanent.Record.1988.720p.HDTV.x264.DD2.0-FGT

Language : English

Default : Yes

Forced : No

  温馨提示:您正在浏览的"《永久记录》BT种子下载"的剧情介绍来自于[www.92np.com-就爱那片儿],如果您喜欢本站,请推荐给您的朋友,谢谢您的支持! 最后更新:2015年08月22日

永久记录电影下载:

提示:由于该资源受到用户投诉或版权方要求,已经停止链接分享

永久记录电影评论

更多精彩电影