当前位置:
首页 » 爱情片 » 谍海风云

谍海风云_上海Shanghai.2010.1080p.BluRay.x264.DTS-FGT7.16GB

谍海风云_上海 Shanghai.2010.1080p.BluRay.x264.DTS-FGT 7.16GB

演员:约翰·库萨克 巩俐 周润发 渡边谦 大卫·摩斯 菊地凛子 弗兰卡·波坦特 杰弗里·迪恩·摩根

导演: 米凯尔·哈弗斯特罗姆 地区: 大陆集数: 0集年代: 2010时间: 105分钟豆瓣评分: 5.8

《谍海风云》海报

  1941年,美国海军情报局特工索姆斯(约翰?库萨克 John Cusack 饰)奉命来到上海,负责调查好友康纳被暗杀的真相。他以德国先驱报驻上海记者的身份游走于社会名流的酒会。他借助同纳粹工程师穆勒太太的情人关系消除猜疑、获取情报。在一次赌局中,他结识了黑帮头目兰亭的夫人安娜(巩俐 饰),对方与手下的神秘暗语令他好奇。跟踪未果,他只得继续打探。为了调查康纳的死因,他秘密约见了康纳的线人。然而,两人的会面却因为日本军队追查地下党而破产。一次偶然的机会,索姆斯再次与安娜重逢,并且在她的引荐中结识了上海黑社会头目安东尼?兰亭(周润发 饰)及日本情报处田中大佐(渡边谦 饰)。在调查中,索姆斯渐渐发现康纳的死跟一个神秘的日本女人(菊地凛子 饰)有关--

◎译 名 谍海风云/上海

◎片 名 Shanghai

◎年 代 2010

◎国 家 美国/中国大陆

◎类 别 剧情/爱情/悬疑/惊悚

◎语 言 英语/汉语普通话/日语/德语/上海话

◎上映日期 2010-06-10(上海电影节)/2010-06-17(中国大陆)

◎IMDb评分 6.5/10 from 6,857 users

◎豆瓣评分 5.8/10 from 16,395 users

◎片 长 105分钟

◎导 演 米凯尔·哈弗斯特罗姆 Mikael H?fstr?m

◎主 演 约翰·库萨克 John Cusack

巩俐

周润发

渡边谦

大卫·摩斯 David Morse

菊地凛子

弗兰卡·波坦特 Franka Potente

杰弗里·迪恩·摩根 Jeffrey Dean Morgan

Video

ID : 1

Format : AVC

Format/Info : Advanced Video Codec

Format profile : [email protected]

Format settings, CABAC : Yes

Format settings, ReFrames : 5 frames

Codec ID : V_MPEG4/ISO/AVC

Duration : 1h 47mn

Bit rate : 8 045 Kbps

Width : 1 920 pixels

Height : 816 pixels

Display aspect ratio : 2.35:1

Frame rate mode : Constant

Frame rate : 23.976 fps

Color space : YUV

Chroma subsampling : 4:2:0

Bit depth : 8 bits

Scan type : Progressive

Bits/(Pixel*Frame) : 0.214

Stream size : 5.88 GiB (82%)

Writing library : x264 core 102 r1666 d058f37

Encoding settings : cabac=1 / ref=5 / deblock=1:-3:-3 / analyse=0x3:0x113 / me=umh / subme=9 / psy=1 / psy_rd=1.05:0.10 / mixed_ref=1 / me_range=32 / chroma_me=1 / trellis=2 / 8x8dct=1 / cqm=2 / deadzone=21,11 / fast_pskip=0 / chroma_qp_offset=-2 / threads=12 / sliced_threads=0 / nr=0 / decimate=1 / interlaced=0 / constrained_intra=0 / bframes=5 / b_pyramid=2 / b_adapt=2 / b_bias=0 / direct=3 / weightb=1 / open_gop=0 / weightp=2 / keyint=250 / keyint_min=25 / scenecut=40 / intra_refresh=0 / rc_lookahead=50 / rc=2pass / mbtree=1 / bitrate=8045 / ratetol=2.0 / qcomp=0.70 / qpmin=10 / qpmax=51 / qpstep=4 / cplxblur=20.0 / qblur=0.5 / vbv_maxrate=50000 / vbv_bufsize=50000 / ip_ratio=1.40 / aq=1:0.80 / nal_hrd=none

Language : English

Default : Yes

Forced : No

Audio

ID : 2

Format : DTS

Format/Info : Digital Theater Systems

Mode : 16

Format settings, Endianness : Big

Codec ID : A_DTS

Duration : 1h 47mn

Bit rate mode : Constant

Bit rate : 1 510 Kbps

Channel(s) : 6 channels

Channel positions : Front: L C R, Side: L R, LFE

Sampling rate : 48.0 KHz

Bit depth : 24 bits

Compression mode : Lossy

Delay relative to video : 800ms

Stream size : 1.13 GiB (16%)

Language : English

Default : Yes

Forced : No

Text

ID : 3

Format : UTF-8

Codec ID : S_TEXT/UTF8

Codec ID/Info : UTF-8 Plain Text

Language : English

Default : No

Forced : No

《谍海风云》剧照-1

《谍海风云》剧照-2

《谍海风云》剧照-3

《谍海风云》剧照-4

  温馨提示:您正在浏览的"《谍海风云》BT种子下载"的剧情介绍来自于[www.92np.com-就爱那片儿],如果您喜欢本站,请推荐给您的朋友,谢谢您的支持! 最后更新:2015年08月23日

谍海风云电影下载:

提示:由于该资源受到用户投诉或版权方要求,已经停止链接分享

谍海风云电影评论

更多精彩电影