当前位置:
首页 » 剧情片 » 杰里科大厦

杰里科大厦Jericho.Mansions.2003.1080p.BluRay.x264.DD2.0-FGT7.48GB

杰里科大厦 Jericho.Mansions.2003.1080p.BluRay.x264.DD2.0-FGT 7.48GB

演员:詹妮弗·提莉

导演: Alberto Sciamma 地区: 加拿大 / 英国集数: 0集年代: 2003时间: 98分钟豆瓣评分: 0.0

《杰里科大厦》海报

◎译 名 杰里科大厦

◎片 名 Jericho Mansions

◎年 代 2003

◎国 家 加拿大/英国

◎类 别 剧情/惊悚

◎语 言 英语/西班牙语

◎上映日期 2003-09-06

◎IMDb评分 5.5/10 from 757 users

◎片 长 Canada: 98 分钟(Montréal World Film Festival)

◎导 演 Alberto Sciamma

◎主 演 詹妮弗·提莉 Jennifer Tilly

杰里科大厦剧情介绍:

  伦纳罗·格雷住在一座母亲给他留下的大厦,在那里他目睹了很多事情的发生。因此在他脑海里总是浮现一些令人恐怖的场景,因为他身边的所有人都变得非常古怪,随时都会萌发可怕的主义,甚至导致一场场残杀事件的发生--

  这部影片的主人翁经常会对旧事的回忆产生恐惧心理,反映一个长期内心非常挣扎的人的生活写照。影片对主人翁的心理描写非常细腻,当中不乏有一些很大胆的镜头,火爆动作也当然不少。

Video

ID : 1

Format : AVC

Format/Info : Advanced Video Codec

Format profile : [email protected]

Format settings, CABAC : Yes

Format settings, ReFrames : 4 frames

Codec ID : V_MPEG4/ISO/AVC

Duration : 1h 33mn

Bit rate : 11.0 Mbps

Width : 1 920 pixels

Height : 1 080 pixels

Display aspect ratio : 16:9

Frame rate mode : Constant

Frame rate : 25.000 fps

Color space : YUV

Chroma subsampling : 4:2:0

Bit depth : 8 bits

Scan type : Progressive

Bits/(Pixel*Frame) : 0.211

Stream size : 7.03 GiB (94%)

Writing library : x264 core 116 r2074 2641b9e

Encoding settings : cabac=1 / ref=4 / deblock=1:-3:-3 / analyse=0x3:0x133 / me=umh / subme=7 / psy=1 / psy_rd=1.00:0.15 / mixed_ref=1 / me_range=24 / chroma_me=1 / trellis=2 / 8x8dct=1 / cqm=0 / deadzone=21,11 / fast_pskip=1 / chroma_qp_offset=-3 / threads=12 / sliced_threads=0 / nr=0 / decimate=1 / interlaced=0 / bluray_compat=0 / constrained_intra=0 / bframes=5 / b_pyramid=2 / b_adapt=2 / b_bias=0 / direct=3 / weightb=1 / open_gop=0 / weightp=2 / keyint=250 / keyint_min=25 / scenecut=40 / intra_refresh=0 / rc_lookahead=30 / rc=2pass / mbtree=1 / bitrate=10958 / ratetol=1.0 / qcomp=0.60 / qpmin=0 / qpmax=69 / qpstep=4 / cplxblur=20.0 / qblur=0.5 / ip_ratio=1.40 / aq=1:1.00

Language : English

Default : Yes

Forced : No

Audio

ID : 2

Format : AC-3

Format/Info : Audio Coding 3

Mode extension : CM (complete main)

Format settings, Endianness : Big

Codec ID : A_AC3

Duration : 1h 33mn

Bit rate mode : Constant

Bit rate : 448 Kbps

Channel(s) : 2 channels

Channel positions : Front: L R

Sampling rate : 48.0 KHz

Compression mode : Lossy

Stream size : 301 MiB (4%)

Language : English

Default : Yes

Forced : No

Menu

00:00:00.000 : en:Chapter 01

00:07:00.000 : en:Chapter 02

00:14:00.000 : en:Chapter 03

00:21:00.000 : en:Chapter 04

00:28:00.000 : en:Chapter 05

00:35:00.000 : en:Chapter 06

00:42:00.000 : en:Chapter 07

00:49:00.000 : en:Chapter 08

00:56:00.000 : en:Chapter 09

01:03:00.000 : en:Chapter 10

01:10:00.000 : en:Chapter 11

01:20:00.000 : en:Chapter 12

01:33:57.040 : en:Chapter 13

  温馨提示:您正在浏览的"《杰里科大厦》BT种子下载"的剧情介绍来自于[www.92np.com-就爱那片儿],如果您喜欢本站,请推荐给您的朋友,谢谢您的支持! 最后更新:2015年08月22日

杰里科大厦电影下载:

提示:由于该资源受到用户投诉或版权方要求,已经停止链接分享

杰里科大厦电影评论

更多精彩电影