当前位置:
首页 » 喜剧片 » 别说再见

别说再见_浪子的情人Just.the.Ticket.1999.720p.HDTV.x264.DD2.0-FGT4.34GB

别说再见_浪子的情人 Just.the.Ticket.1999.720p.HDTV.x264.DD2.0-FGT 4.34GB

演员:安迪·加西亚 安迪·麦克道威尔

导演: 理查德 温克 (Richard Wenk) 地区: 法国 / 美国集数: 0集年代: 1999时间: 115分钟豆瓣评分: 7.7

《别说再见》海报

  故事发生在90年代纽约的一家餐厅,此时正聚集了一些城市中微不足道的梦想家与计划者──他们是一群销售"黄牛票"的掮客,正在庆祝当日丰硕的成果。而盖瑞在这一堆违法销售票券、美其名为"掮客"的乌合之众里位居"主席"之职。经过几年下来,盖瑞凭着他敏捷的智能和言语、以及所谓"盗贼仁义"般的人生哲学,悠游于这个行业之中并累积了不少的财富。但是,盖瑞遇到了两个问题,让他的世界必须改变,其一是与他交往多年的女友琳达终于厌倦了他这种反复无常的生活,其二是突然有另一坏蛋黄牛欲介入盖瑞的地盘,成为纽约的"黄牛票大王"。他该如何抉择呢, 放弃女友?还是放手一博?

◎译 名 别说再见/浪子的情人

◎片 名 Just the Ticket

◎年 代 1999

◎国 家 法国/美国

◎类 别 喜剧/爱情

◎语 言 英语

◎上映日期 1999-02-26

◎IMDb评分 5.5/10 from 1,632 users

◎豆瓣评分 7.7/10 from 54 users

◎片 长 Argentina: 115 分钟/Spain: 116 分钟/USA: 115 分钟

◎导 演 理查德 温克 (Richard Wenk)

◎主 演 安迪·加西亚 Andy Garcia

安迪·麦克道威尔 Andie MacDowell

Video

ID : 1

Format : AVC

Format/Info : Advanced Video Codec

Format profile : [email protected]

Format settings, CABAC : Yes

Format settings, ReFrames : 2 frames

Codec ID : V_MPEG4/ISO/AVC

Duration : 1h 55mn

Bit rate : 5 000 Kbps

Width : 1 280 pixels

Height : 720 pixels

Display aspect ratio : 16:9

Frame rate mode : Constant

Frame rate : 29.970 fps

Color space : YUV

Chroma subsampling : 4:2:0

Bit depth : 8 bits

Scan type : Progressive

Bits/(Pixel*Frame) : 0.181

Stream size : 3.95 GiB (91%)

Writing library : x264 core 116 r2074

Encoding settings : cabac=1 / ref=1 / deblock=1:0:0 / analyse=0x1:0x131 / me=hex / subme=7 / psy=1 / psy_rd=1.00:0.00 / mixed_ref=0 / me_range=16 / chroma_me=1 / trellis=1 / 8x8dct=0 / cqm=0 / deadzone=21,11 / fast_pskip=1 / chroma_qp_offset=-2 / threads=12 / sliced_threads=0 / nr=0 / decimate=1 / interlaced=0 / bluray_compat=0 / constrained_intra=0 / bframes=3 / b_pyramid=0 / b_adapt=1 / b_bias=0 / direct=3 / weightb=1 / open_gop=1 / weightp=2 / keyint=290 / keyint_min=29 / scenecut=40 / intra_refresh=0 / rc_lookahead=40 / rc=2pass / mbtree=1 / bitrate=5000 / ratetol=1.0 / qcomp=0.60 / qpmin=10 / qpmax=51 / qpstep=4 / cplxblur=20.0 / qblur=0.5 / vbv_maxrate=24000 / vbv_bufsize=24000 / nal_hrd=none / ip_ratio=1.40 / aq=1:1.00

Language : English

Default : Yes

Forced : No

Audio

ID : 2

Format : AC-3

Format/Info : Audio Coding 3

Mode extension : CM (complete main)

Format settings, Endianness : Big

Codec ID : A_AC3

Duration : 1h 55mn

Bit rate mode : Constant

Bit rate : 384 Kbps

Channel(s) : 2 channels

Channel positions : Front: L R

Sampling rate : 48.0 KHz

Compression mode : Lossy

Stream size : 317 MiB (7%)

Language : English

Default : Yes

Forced : No

Text

ID : 3

Format : UTF-8

Codec ID : S_TEXT/UTF8

Codec ID/Info : UTF-8 Plain Text

Language : English

Default : No

Forced : No

  温馨提示:您正在浏览的"《别说再见》BT种子下载"的剧情介绍来自于[www.92np.com-就爱那片儿],如果您喜欢本站,请推荐给您的朋友,谢谢您的支持! 最后更新:2015年08月22日

别说再见电影下载:

提示:由于该资源受到用户投诉或版权方要求,已经停止链接分享

别说再见电影评论

更多精彩电影