当前位置:
首页 » 喜剧片 » 天灭吸血鬼

天灭吸血鬼Jesus.Christ.Vampire.Hunter.2001.1080p.BluRay.x264.DD2.0-FGT6.55GB

天灭吸血鬼 Jesus.Christ.Vampire.Hunter.2001.1080p.BluRay.x264.DD2.0-FGT 6.55GB

《天灭吸血鬼》海报

演员:未录入

导演: 未录入 地区: 加拿大集数: 0集年代: 2001时间: 85分钟豆瓣评分: 0.0

《天灭吸血鬼》剧照-1

◎译 名 天灭吸血鬼

◎片 名 Jesus Christ Vampire Hunter

◎年 代 2001

◎国 家 加拿大

◎类 别 动作/喜剧/恐怖/歌舞

◎语 言 英语

◎上映日期 2001-10-19

◎IMDb评分 5.2/10 from 3,439 users

◎片 长 85 分钟

天灭吸血鬼剧情介绍:

The first testament says "an eye for an eye." The second testament says "love thy neighbour." The third testament KICKS ASS! The filmmaking team that brought you

Harry Knuckles and won the "Spirit of Slamdance" prize with Harry Knuckles and the Treasure of the Aztec Mummy ups the ante with this tale of the ultimate action

hero: Jesus Christ. The second coming is upon us| and Jesus has returned to earth. But before he can get down to the serious business of judging the living and the

dead| he has to contend with an army of vampires that can walk in the daylight. Combining kung-fu action with biblical prophecy and a liberal dose of humour| the

film teams the Savior with Mexican wrestling hero El Santos against mythological horrors and science gone mad| and also manages to address contemporary sexual

politics. And did we mention that it's a musical? This sure ain't Sunday School.

后现代解构大片儿!~

Video

ID : 1

Format : AVC

Format/Info : Advanced Video Codec

Format profile : [email protected]

Format settings, CABAC : Yes

Format settings, ReFrames : 4 frames

Codec ID : V_MPEG4/ISO/AVC

Duration : 1h 24mn

Bit rate : 10.9 Mbps

Width : 1 920 pixels

Height : 1 080 pixels

Display aspect ratio : 16:9

Frame rate mode : Constant

Frame rate : 23.976 fps

Color space : YUV

Chroma subsampling : 4:2:0

Bit depth : 8 bits

Scan type : Progressive

Bits/(Pixel*Frame) : 0.219

Stream size : 6.31 GiB (96%)

Writing library : x264 core 104 r1683 62997d6

Encoding settings : cabac=1 / ref=4 / deblock=1:0:0 / analyse=0x3:0x133 / me=umh / subme=7 / psy=1 / psy_rd=1.00:0.00 / mixed_ref=1 / me_range=16 / chroma_me=1 / trellis=1 / 8x8dct=1 / cqm=0 / deadzone=21,11 / fast_pskip=0 / chroma_qp_offset=-2 / threads=6 / sliced_threads=0 / nr=0 / decimate=1 / interlaced=0 / constrained_intra=0 / bframes=3 / b_pyramid=2 / b_adapt=1 / b_bias=0 / direct=1 / weightb=1 / open_gop=0 / weightp=2 / keyint=250 / keyint_min=23 / scenecut=40 / intra_refresh=0 / rc_lookahead=40 / rc=2pass / mbtree=1 / bitrate=10866 / ratetol=1.0 / qcomp=0.60 / qpmin=10 / qpmax=51 / qpstep=4 / cplxblur=20.0 / qblur=0.5 / ip_ratio=1.40 / aq=1:1.00

Language : English

Default : Yes

Forced : No

Audio

ID : 2

Format : AC-3

Format/Info : Audio Coding 3

Mode extension : CM (complete main)

Format settings, Endianness : Big

Codec ID : A_AC3

Duration : 1h 24mn

Bit rate mode : Constant

Bit rate : 192 Kbps

Channel(s) : 2 channels

Channel positions : Front: L R

Sampling rate : 48.0 KHz

Compression mode : Lossy

Stream size : 117 MiB (2%)

Language : English

Default : Yes

Forced : No

《天灭吸血鬼》剧照-2

  温馨提示:您正在浏览的"《天灭吸血鬼》BT种子下载"的剧情介绍来自于[www.92np.com-就爱那片儿],如果您喜欢本站,请推荐给您的朋友,谢谢您的支持! 最后更新:2015年08月25日

天灭吸血鬼电影下载:

提示:推荐使用BitComet、Utorrent、QQ旋风、迅雷下载天灭吸血鬼。喜欢在线看的朋友可以把种子上传到百度网盘、115网盘,离线下载完手机电脑都可以在线看。

天灭吸血鬼电影评论

更多精彩电影