当前位置:
首页 » 惊悚片 » 魔鬼天使

魔鬼天使_邪恶天使Evil.Angel.2009.1080p.BluRay.x264.DTS-FGT7.94GB

魔鬼天使_邪恶天使 Evil.Angel.2009.1080p.BluRay.x264.DTS-FGT 7.94GB

演员:Ving Rhames Ava Gaudet Kristopher Shepard

导演: Richard Dutcher 地区: 美国集数: 0集年代: 2009时间: 123分钟豆瓣评分: 4.8

《魔鬼天使》海报

◎译 名 魔鬼天使/邪恶天使

◎片 名 Evil Angel

◎年 代 2009

◎国 家 美国

◎类 别 恐怖/惊悚

◎语 言 英语

◎上映日期 2009-02-05

◎IMDb评分 5.5/10 from 975 users

◎豆瓣评分 4.8/10 from 92 users

◎片 长 Germany: 123 分钟(European Film Market)

◎导 演 Richard Dutcher

◎主 演 Ving Rhames

Ava Gaudet

Kristopher Shepard

魔鬼天使剧情介绍:

  故事发生在当代的芝加哥,恶魔复仇天使Lilith试图想去摧毁一家年轻的家庭,然而半路杀出个程咬金,破坏了她的计划--

Video

ID : 1

Format : AVC

Format/Info : Advanced Video Codec

Format profile : [email protected]

Format settings, CABAC : Yes

Format settings, ReFrames : 5 frames

Codec ID : V_MPEG4/ISO/AVC

Duration : 2h 4mn

Bit rate : 8 018 Kbps

Width : 1 920 pixels

Height : 816 pixels

Display aspect ratio : 2.35:1

Frame rate mode : Constant

Frame rate : 23.976 fps

Color space : YUV

Chroma subsampling : 4:2:0

Bit depth : 8 bits

Scan type : Progressive

Bits/(Pixel*Frame) : 0.213

Stream size : 6.79 GiB (85%)

Writing library : x264 core 93 r1542 5b86182

Encoding settings : cabac=1 / ref=5 / deblock=1:0:0 / analyse=0x3:0x133 / me=umh / subme=9 / psy=1 / psy_rd=1.00:0.00 / mixed_ref=1 / me_range=16 / chroma_me=1 / trellis=1 / 8x8dct=1 / cqm=0 / deadzone=21,11 / fast_pskip=0 / chroma_qp_offset=-2 / threads=12 / sliced_threads=0 / nr=0 / decimate=1 / interlaced=0 / constrained_intra=0 / bframes=3 / b_pyramid=2 / b_adapt=1 / b_bias=0 / direct=1 / wpredb=1 / wpredp=2 / keyint=250 / keyint_min=25 / scenecut=40 / intra_refresh=0 / rc_lookahead=40 / rc=2pass / mbtree=1 / bitrate=8018 / ratetol=1.0 / qcomp=0.60 / qpmin=10 / qpmax=51 / qpstep=4 / cplxblur=20.0 / qblur=0.5 / ip_ratio=1.40 / aq=1:1.00

Language : English

Default : Yes

Forced : No

Audio

ID : 2

Format : DTS

Format/Info : Digital Theater Systems

Mode : 16

Format settings, Endianness : Big

Codec ID : A_DTS

Duration : 2h 4mn

Bit rate mode : Constant

Bit rate : 1 152 Kbps

Channel(s) : 6 channels

Channel positions : Front: L C R, Side: L R, LFE

Sampling rate : 48.0 KHz

Bit depth : 16 bits

Compression mode : Lossy

Stream size : 1 022 MiB (13%)

Language : English

Default : Yes

Forced : No

《魔鬼天使》剧照-1

  温馨提示:您正在浏览的"《魔鬼天使》BT种子下载"的剧情介绍来自于[www.92np.com-就爱那片儿],如果您喜欢本站,请推荐给您的朋友,谢谢您的支持! 最后更新:2015年08月25日

魔鬼天使电影下载:

提示:由于该资源受到用户投诉或版权方要求,已经停止链接分享

魔鬼天使电影评论

更多精彩电影