当前位置:
首页 » 剧情片 » 纳粹追凶

纳粹追凶_纳粹高徒Apt.Pupil.1998.1080p.BluRay.x264.DTS-FGT7.65GB

纳粹追凶_纳粹高徒 Apt.Pupil.1998.1080p.BluRay.x264.DTS-FGT 7.65GB

演员:布拉德·兰弗洛 伊恩·麦克莱恩 乔舒亚·杰克逊

导演: 布莱恩·辛格 地区: 美国 / 加拿大 /集数: 0集年代: 1998时间: 111分钟豆瓣评分: 7.0

《纳粹追凶》海报

  托特(布拉德·兰弗洛 Brad Renfro 饰)是一个十六岁的青年,和所有这个年纪的男孩一样,他活泼开朗,对世间万物充满了好奇,但有一股与生俱来的另类力量隐藏在他的灵魂之中。一次偶然中,托特发现了一个惊人的秘密,自己所居住的平静小镇上,居然住了一个曾经在二战时期犯下过累累罪行的前纳粹军官科特(伊恩·麦克莱恩 Ian McKellen 饰)。

  托特的这一发现并没有令他感到害怕,正相反,内心的悸动对他发出了召唤。托特找到科特,当面揭露了他所隐藏的罪行,但托特的目的却并非勒索或驱逐,而是要求对方将战争时期的所做所闻娓娓道来。在残酷和暴力的言语之下,一颗恶魔的心逐渐苏醒。

◎译 名 纳粹追凶/纳粹高徒/谁在跟我玩游戏

◎片 名 Apt Pupil

◎年 代 1998

◎国 家 美国/加拿大/法国

◎类 别 剧情/惊悚

◎语 言 英语

◎上映日期 1998-10-23(美国)

◎IMDb评分 6.7/10 from 27,580 users

◎豆瓣评分 7.0/10 from 1,795 users

◎片 长 111 分钟/Argentina: 112 分钟

◎导 演 布莱恩·辛格 Bryan Singer

◎主 演 布拉德·兰弗洛 Brad Renfro

伊恩·麦克莱恩 Ian McKellen

乔舒亚·杰克逊 Joshua Jackson

◎获奖情况

第11届东京国际电影节 (1998)

主竞赛单元 最佳影片(提名) 布莱恩·辛格

主竞赛单元 最佳男演员 布拉德·兰弗洛

Video

ID : 1

Format : AVC

Format/Info : Advanced Video Codec

Format profile : [email protected]

Format settings, CABAC : Yes

Format settings, ReFrames : 5 frames

Codec ID : V_MPEG4/ISO/AVC

Duration : 1h 51mn

Bit rate : 8 344 Kbps

Width : 1 920 pixels

Height : 800 pixels

Display aspect ratio : 2.40:1

Frame rate mode : Constant

Frame rate : 23.976 fps

Color space : YUV

Chroma subsampling : 4:2:0

Bit depth : 8 bits

Scan type : Progressive

Bits/(Pixel*Frame) : 0.227

Stream size : 6.33 GiB (83%)

Writing library : x264 core 115 r1995 c1e60b9

Encoding settings : cabac=1 / ref=5 / deblock=1:0:0 / analyse=0x3:0x113 / me=umh / subme=8 / psy=1 / psy_rd=1.00:0.00 / mixed_ref=1 / me_range=16 / chroma_me=1 / trellis=1 / 8x8dct=1 / cqm=0 / deadzone=21,11 / fast_pskip=1 / chroma_qp_offset=-2 / threads=12 / sliced_threads=0 / nr=0 / decimate=1 / interlaced=0 / bluray_compat=0 / constrained_intra=0 / bframes=3 / b_pyramid=2 / b_adapt=2 / b_bias=0 / direct=3 / weightb=1 / open_gop=0 / weightp=2 / keyint=240 / keyint_min=24 / scenecut=40 / intra_refresh=0 / rc_lookahead=50 / rc=2pass / mbtree=1 / bitrate=8344 / ratetol=1.0 / qcomp=0.60 / qpmin=0 / qpmax=69 / qpstep=4 / cplxblur=20.0 / qblur=0.5 / ip_ratio=1.40 / aq=1:1.00

Language : English

Default : Yes

Forced : No

Audio

ID : 2

Format : DTS

Format/Info : Digital Theater Systems

Mode : 16

Format settings, Endianness : Big

Codec ID : A_DTS

Duration : 1h 51mn

Bit rate mode : Constant

Bit rate : 1 509 Kbps

Channel(s) : 6 channels

Channel positions : Front: L C R, Side: L R, LFE

Sampling rate : 48.0 KHz

Bit depth : 24 bits

Compression mode : Lossy

Stream size : 1.17 GiB (15%)

Language : English

Default : Yes

Forced : No

Text #1

ID : 3

Format : UTF-8

Codec ID : S_TEXT/UTF8

Codec ID/Info : UTF-8 Plain Text

Language : English

Default : No

Forced : No

Text #2

ID : 4

Format : UTF-8

Codec ID : S_TEXT/UTF8

Codec ID/Info : UTF-8 Plain Text

Title : SDH

Language : English

Default : No

Forced : No

Menu

00:00:00.000 : en:00:00:00.000

00:06:52.203 : en:00:06:52.203

00:14:38.836 : en:00:14:38.836

00:18:56.844 : en:00:18:56.844

00:29:35.607 : en:00:29:35.607

00:35:47.354 : en:00:35:47.354

00:40:40.897 : en:00:40:40.897

00:48:33.369 : en:00:48:33.369

00:56:15.789 : en:00:56:15.789

01:05:46.734 : en:01:05:46.734

01:09:00.928 : en:01:09:00.928

01:15:10.756 : en:01:15:10.756

01:22:39.997 : en:01:22:39.997

01:29:48.717 : en:01:29:48.717

01:37:08.239 : en:01:37:08.239

01:42:44.367 : en:01:42:44.367

《纳粹追凶》剧照-1

  温馨提示:您正在浏览的"《纳粹追凶》BT种子下载"的剧情介绍来自于[www.92np.com-就爱那片儿],如果您喜欢本站,请推荐给您的朋友,谢谢您的支持! 最后更新:2015年08月25日

纳粹追凶电影下载:

提示:推荐使用BitComet、Utorrent、QQ旋风、迅雷下载纳粹追凶。喜欢在线看的朋友可以把种子上传到百度网盘、115网盘,离线下载完手机电脑都可以在线看。

纳粹追凶电影评论

更多精彩电影