当前位置:
首页 » 惊悚片 » 尸体解剖

尸体解剖_恐怖医院Autopsy.2008.1080p.BluRay.x264.DD5.1-FGT6.55GB

尸体解剖_恐怖医院 Autopsy.2008.1080p.BluRay.x264.DD5.1-FGT 6.55GB

演员:杰西卡·朗德斯 迈克尔·鲍文 罗伯特·帕特里克 詹妮特·戈德斯坦恩 Ashley Schneider

导演: Adam Gierasch 地区: 美国集数: 0集年代: 2008时间: 0分钟豆瓣评分: 5.7

《尸体解剖》海报

◎译 名 尸体解剖/恐怖医院(台)

◎片 名 Autopsy

◎年 代 2008

◎国 家 美国

◎类 别 悬疑/惊悚/恐怖

◎语 言 英语

◎上映日期 2008-08-24

◎IMDb评分 5.0/10 from 4,930 users

◎豆瓣评分 5.7/10 from 2,058 users

◎导 演 Adam Gierasch

◎主 演 杰西卡·朗德斯 Jessica Lowndes

迈克尔·鲍文 Michael Bowen

罗伯特·帕特里克 Robert Patrick

詹妮特·戈德斯坦恩 Jenette Goldstein

Ashley Schneider

尸体解剖剧情介绍:

  一个年轻的女孩试图在畸形并且危险的医院找到她受伤的男友--

Video

ID : 1

Format : AVC

Format/Info : Advanced Video Codec

Format profile : [email protected]

Format settings, CABAC : Yes

Format settings, ReFrames : 4 frames

Codec ID : V_MPEG4/ISO/AVC

Duration : 1h 24mn

Bit rate : 10.5 Mbps

Width : 1 916 pixels

Height : 1 080 pixels

Display aspect ratio : 16:9

Frame rate mode : Constant

Frame rate : 23.976 fps

Color space : YUV

Chroma subsampling : 4:2:0

Bit depth : 8 bits

Scan type : Progressive

Bits/(Pixel*Frame) : 0.212

Stream size : 6.04 GiB (92%)

Writing library : x264 core 107 r1745 4785e8e

Encoding settings : cabac=1 / ref=4 / deblock=1:0:0 / analyse=0x3:0x133 / me=umh / subme=8 / psy=1 / psy_rd=1.00:0.00 / mixed_ref=1 / me_range=16 / chroma_me=1 / trellis=1 / 8x8dct=1 / cqm=0 / deadzone=21,11 / fast_pskip=0 / chroma_qp_offset=-2 / threads=3 / sliced_threads=0 / nr=0 / decimate=1 / interlaced=0 / constrained_intra=0 / bframes=3 / b_pyramid=2 / b_adapt=1 / b_bias=0 / direct=1 / weightb=1 / open_gop=0 / weightp=2 / keyint=250 / keyint_min=23 / scenecut=40 / intra_refresh=0 / rc_lookahead=40 / rc=2pass / mbtree=1 / bitrate=10528 / ratetol=1.0 / qcomp=0.60 / qpmin=10 / qpmax=51 / qpstep=4 / cplxblur=20.0 / qblur=0.5 / ip_ratio=1.40 / aq=1:1.00

Language : English

Default : Yes

Forced : No

Audio

ID : 2

Format : AC-3

Format/Info : Audio Coding 3

Mode extension : CM (complete main)

Format settings, Endianness : Big

Codec ID : A_AC3

Duration : 1h 24mn

Bit rate mode : Constant

Bit rate : 640 Kbps

Channel(s) : 6 channels

Channel positions : Front: L C R, Side: L R, LFE

Sampling rate : 48.0 KHz

Compression mode : Lossy

Stream size : 385 MiB (6%)

Language : English

Default : Yes

Forced : No

《尸体解剖》剧照-1

  温馨提示:您正在浏览的"《尸体解剖》BT种子下载"的剧情介绍来自于[www.92np.com-就爱那片儿],如果您喜欢本站,请推荐给您的朋友,谢谢您的支持! 最后更新:2015年08月25日

尸体解剖电影下载:

提示:由于该资源受到用户投诉或版权方要求,已经停止链接分享

尸体解剖电影评论

更多精彩电影