当前位置:
首页 » 喜剧片 » 完美隐藏

完美隐藏Perfect.Hideout.2008.1080p.BluRay.x264.DD2.0-FGT9.5GB

完美隐藏 Perfect.Hideout.2008.1080p.BluRay.x264.DD2.0-FGT 9.5GB

演员:比利·赞恩 Cristian Solimeno Melinda Y. Cohen ... Celia

导演: Stephen Manuel 地区: 德国集数: 0集年代: 2008时间: 0分钟豆瓣评分: 4.6

《完美隐藏》海报

◎译 名 完美隐藏

◎片 名 Perfect Hideout

◎年 代 2008

◎国 家 德国

◎类 别 动作/喜剧/犯罪/惊悚

◎语 言 英语

◎上映日期 2008

◎IMDb评分 4.1/10 from 1,087 users

◎豆瓣评分 4.6/10 from 187 users

◎导 演 Stephen Manuel

◎主 演 比利·赞恩 Billy Zane ... Victor

Cristian Solimeno ... Nick

Melinda Y. Cohen ... Celia

完美隐藏剧情介绍:

  29岁的尼克来自美国,理论上,这是他和西莉亚(27岁) 的新生活应该开始的日子,他们打算乘飞机去美国---那里尼克的朋友正等

  着欢迎他们。他们的关系开始不久,但是他们都想放弃以往的个人包袱,可是放不下。对西莉亚来说,这是流产的创伤,在事故里,她

  失去一个不是尼克的孩子。对尼克来说,这是为西莉亚而放弃的不正当的生意交易。

Video

ID : 1

Format : AVC

Format/Info : Advanced Video Codec

Format profile : [email protected]

Format settings, CABAC : Yes

Format settings, ReFrames : 4 frames

Codec ID : V_MPEG4/ISO/AVC

Duration : 1h 30mn

Bit rate : 14.7 Mbps

Width : 1 920 pixels

Height : 1 080 pixels

Display aspect ratio : 16:9

Frame rate mode : Constant

Frame rate : 25.000 fps

Color space : YUV

Chroma subsampling : 4:2:0

Bit depth : 8 bits

Scan type : Progressive

Bits/(Pixel*Frame) : 0.284

Stream size : 9.07 GiB (95%)

Writing library : x264 core 114 r1924+495 ccd7045

Encoding settings : cabac=1 / ref=4 / deblock=1:-3:-3 / analyse=0x3:0x113 / me=umh / subme=9 / psy=1 / fade_compensate=0.00 / psy_rd=1.05:0.10 / mixed_ref=1 / me_range=32 / chroma_me=1 / trellis=2 / 8x8dct=1 / cqm=2 / deadzone=21,11 / fast_pskip=0 / chroma_qp_offset=-2 / threads=12 / sliced_threads=0 / nr=0 / decimate=1 / interlaced=0 / constrained_intra=0 / fgo=0 / bframes=6 / b_pyramid=2 / b_adapt=2 / b_bias=0 / direct=3 / weightb=1 / open_gop=0 / weightp=2 / keyint=250 / keyint_min=25 / scenecut=40 / intra_refresh=0 / rc_lookahead=60 / rc=2pass / mbtree=1 / bitrate=14713 / ratetol=2.0 / qcomp=0.70 / qpmin=1 / qpmax=63 / qpstep=4 / cplxblur=20.0 / qblur=0.5 / vbv_maxrate=40000 / vbv_bufsize=30000 / nal_hrd=none / ip_ratio=1.40 / aq=1:0.90

Language : English

Default : Yes

Forced : No

Audio

ID : 2

Format : AC-3

Format/Info : Audio Coding 3

Mode extension : CM (complete main)

Format settings, Endianness : Big

Codec ID : A_AC3

Duration : 1h 30mn

Bit rate mode : Constant

Bit rate : 384 Kbps

Channel(s) : 2 channels

Channel positions : Front: L R

Sampling rate : 48.0 KHz

Compression mode : Lossy

Stream size : 247 MiB (3%)

Language : English

Default : Yes

Forced : No

《完美隐藏》剧照-1

《完美隐藏》剧照-2

《完美隐藏》剧照-3

《完美隐藏》剧照-4

  温馨提示:您正在浏览的"《完美隐藏》BT种子下载"的剧情介绍来自于[www.92np.com-就爱那片儿],如果您喜欢本站,请推荐给您的朋友,谢谢您的支持! 最后更新:2015年08月27日

完美隐藏电影下载:

提示:推荐使用BitComet、Utorrent、QQ旋风、迅雷下载完美隐藏。喜欢在线看的朋友可以把种子上传到百度网盘、115网盘,离线下载完手机电脑都可以在线看。

完美隐藏电影评论

更多精彩电影