当前位置:
首页 » 剧情片 » 头骨国度

头骨国度头颅国度颅骨国度.Country.2004.720p.WEB-DL.DD5.1.H264-FGT3.09GB

演员:塞缪尔·杰克逊 朱丽叶·比诺什 布莱丹·格里森

导演: 约翰·保曼 地区: 英国 / 爱尔兰 /集数: 0集年代: 2004时间: 105分钟豆瓣评分: 7.2

《头骨国度》海报

  1995年,美国黑人记者朗斯顿·惠特菲尔德去南非采访"真理及和解"委员会,这是前圣公会大主教迪斯蒙·图图领导的种族隔离调查组织,他们听证的目的不仅是要弄清楚那些野蛮的犯罪,还要与受害者一起与种族主义者作斗争。在这期间,他结识了一位南非白人女记者安娜·马兰,她也正在为电台做听证会报道。两人在种族隔离时代的尾声中,开始了一段黑白恋情。

◎译 名 头骨国度/头颅国度/颅骨国度/心灵梦土

◎片 名 Country of My Skull

◎年 代 2004

◎国 家 英国/爱尔兰/南非

◎类 别 剧情

◎语 言 英语/南非荷兰语

◎上映日期 2004-05-07

◎IMDb评分 6.1/10 from 2,128 users

◎豆瓣评分 7.2/10 from 196 users

◎片 长 105 分钟

◎导 演 约翰·保曼 John Boorman

◎主 演 塞缪尔·杰克逊 Samuel L. Jackson

朱丽叶·比诺什 Juliette Binoche

布莱丹·格里森 Brendan Gleeson

Video

ID : 1

Format : AVC

Format/Info : Advanced Video Codec

Format profile : [email protected]

Format settings, CABAC : No

Format settings, ReFrames : 2 frames

Format settings, GOP : N=1

Codec ID : V_MPEG4/ISO/AVC

Duration : 1h 43mn

Bit rate : 3 818 Kbps

Width : 1 280 pixels

Height : 694 pixels

Display aspect ratio : 1.85:1

Frame rate mode : Constant

Frame rate : 23.976 fps

Color space : YUV

Chroma subsampling : 4:2:0

Bit depth : 8 bits

Scan type : Progressive

Bits/(Pixel*Frame) : 0.179

Stream size : 2.75 GiB (89%)

Language : English

Default : Yes

Forced : No

Color range : Limited

Color primaries : BT.709

Transfer characteristics : BT.709

Matrix coefficients : BT.709

Audio

ID : 2

Format : AC-3

Format/Info : Audio Coding 3

Mode extension : CM (complete main)

Format settings, Endianness : Big

Codec ID : A_AC3

Duration : 1h 43mn

Bit rate mode : Constant

Bit rate : 384 Kbps

Channel(s) : 6 channels

Channel positions : Front: L C R, Side: L R, LFE

Sampling rate : 48.0 KHz

Compression mode : Lossy

Stream size : 283 MiB (9%)

Language : English

Default : Yes

Forced : No

Text

ID : 3

Format : UTF-8

Codec ID : S_TEXT/UTF8

Codec ID/Info : UTF-8 Plain Text

Language : English

Default : Yes

Forced : No

Menu

00:00:00.000 : en:1

00:06:43.000 : en:2

00:13:15.000 : en:3

00:23:02.000 : en:4

00:25:34.000 : en:5

00:32:11.000 : en:6

00:38:09.000 : en:7

00:43:49.000 : en:8

00:49:21.000 : en:9

00:53:57.000 : en:10

00:57:48.000 : en:11

01:04:47.000 : en:12

01:11:07.000 : en:13

01:18:21.000 : en:14

01:27:46.000 : en:15

01:37:02.000 : en:16

《头骨国度》剧照-1

  温馨提示:您正在浏览的"《头骨国度》BT种子下载"的剧情介绍来自于[www.92np.com-就爱那片儿],如果您喜欢本站,请推荐给您的朋友,谢谢您的支持! 最后更新:2015年08月27日

头骨国度电影下载:

提示:由于该资源受到用户投诉或版权方要求,已经停止链接分享

头骨国度电影评论

更多精彩电影