当前位置:
首页 » 剧情片 » 红杉

红杉Sequoia.2014.720p.WEB-DL.DD5.1.H264-FGT2.61GB

红杉 Sequoia.2014.720p.WEB-DL.DD5.1.H264-FGT 2.61GB

《红杉》海报

演员:Aly Michalka Joey Lauren Adams Lou Diamond Phillips

导演: Andy Landen 地区: 美国集数: 0集年代: 2014时间: 86分钟豆瓣评分: 0.0

◎译 名 红杉

◎片 名 Sequoia

◎年 代 2014

◎国 家 美国

◎类 别 剧情

◎语 言 英语

◎上映日期 2014-03-09

◎IMDb评分 6.8/10 from 58 users

◎片 长 86分钟

◎导 演 Andy Landen

◎主 演 Aly Michalka

Joey Lauren Adams

Lou Diamond Phillips

红杉剧情介绍:

A very lively woman with a very deadly cancer visits a national park with the intention of ending her life there-- but her suicide plans are continually thwarted|

not least of all by her family| which finds itself unamused with her death wish.

Video

ID : 1

Format : AVC

Format/Info : Advanced Video Codec

Format profile : [email protected]

Format settings, CABAC : No

Format settings, ReFrames : 2 frames

Codec ID : V_MPEG4/ISO/AVC

Duration : 1h 27mn

Bit rate : 3 827 Kbps

Width : 1 280 pixels

Height : 692 pixels

Display aspect ratio : 1.85:1

Frame rate mode : Constant

Frame rate : 23.976 fps

Color space : YUV

Chroma subsampling : 4:2:0

Bit depth : 8 bits

Scan type : Progressive

Bits/(Pixel*Frame) : 0.180

Stream size : 2.33 GiB (89%)

Title : Sequoia.2014.720p.WEB-DL.DD5.1.H264-FGT

Language : English

Default : Yes

Forced : No

Color range : Limited

Color primaries : BT.709

Transfer characteristics : BT.709

Matrix coefficients : BT.709

Audio

ID : 2

Format : AC-3

Format/Info : Audio Coding 3

Mode extension : CM (complete main)

Format settings, Endianness : Big

Codec ID : A_AC3

Duration : 1h 27mn

Bit rate mode : Constant

Bit rate : 384 Kbps

Channel(s) : 6 channels

Channel positions : Front: L C R, Side: L R, LFE

Sampling rate : 48.0 KHz

Compression mode : Lossy

Stream size : 239 MiB (9%)

Title : Sequoia.2014.720p.WEB-DL.DD5.1.H264-FGT

Language : English

Default : Yes

Forced : No

Text

ID : 3

Format : UTF-8

Codec ID : S_TEXT/UTF8

Codec ID/Info : UTF-8 Plain Text

Default : Yes

Forced : No

  温馨提示:您正在浏览的"《红杉》BT种子下载"的剧情介绍来自于[www.92np.com-就爱那片儿],如果您喜欢本站,请推荐给您的朋友,谢谢您的支持! 最后更新:2015年08月27日

红杉电影下载:

提示:由于该资源受到用户投诉或版权方要求,已经停止链接分享

红杉电影评论

更多精彩电影