当前位置:
首页 » 惊悚片 » 罗斯玛丽的杀手

罗斯玛丽的杀手The.Prowler.1981.1080p.BluRay.x264.DTS-FGT6.55GB

罗斯玛丽的杀手 The.Prowler.1981.1080p.BluRay.x264.DTS-FGT 6.55GB

演员:Vicky Dawson Christopher Goutman

导演: Joseph Zito 地区: 美国集数: 0集年代: 1981时间: 89分钟豆瓣评分: 5.1

《罗斯玛丽的杀手》海报

  1945年6月28日,某大学毕业舞会,男青年罗伊(Timothy Wahrer 饰)和他的女友弗兰西丝?罗斯玛丽?凯瑟姆(Joy Glaccum 饰)被人残忍杀害,凶手始终下落不明。弗兰西丝身为校领导的父亲(Lawrence Tierney 饰)伤心过度,从此禁止举行任何形式的庆祝舞会。

  时间转瞬即逝,转眼来到1980年。35年前的惨案除了当事人外早已为其他人淡忘,以帕姆(Vicky Dawson 饰)为首的一群年轻人难耐寂寞,他们决定将挺办数十年的毕业舞会带回校园。经过一番努力,年轻人们最终如愿以偿,而当他们陶醉在轻歌曼舞中之时,似乎当年那个神秘的杀手也回到了青年们的中间--

◎译 名 罗斯玛丽的杀手

◎片 名 The Prowler

◎年 代 1981

◎国 家 美国

◎类 别 恐怖/悬疑

◎语 言 英语

◎上映日期 1981-11-06

◎IMDb评分 6.2/10 from 5,193 users

◎豆瓣评分 5.1/10 from 30 users

◎片 长 89 分钟/UK: 87 分钟(cut version)

◎导 演 Joseph Zito

◎主 演 Vicky Dawson

Christopher Goutman

Video

ID : 1

Format : AVC

Format/Info : Advanced Video Codec

Format profile : [email protected]

Format settings, CABAC : Yes

Format settings, ReFrames : 4 frames

Codec ID : V_MPEG4/ISO/AVC

Duration : 1h 28mn

Bit rate : 9 123 Kbps

Width : 1 920 pixels

Height : 1 040 pixels

Display aspect ratio : 1.85:1

Frame rate mode : Constant

Frame rate : 23.976 fps

Color space : YUV

Chroma subsampling : 4:2:0

Bit depth : 8 bits

Scan type : Progressive

Bits/(Pixel*Frame) : 0.191

Stream size : 5.49 GiB (84%)

Writing library : x264 core 104 r1688 0b36c6d

Encoding settings : cabac=1 / ref=4 / deblock=1:0:0 / analyse=0x3:0x133 / me=umh / subme=7 / psy=1 / psy_rd=1.00:0.15 / mixed_ref=1 / me_range=16 / chroma_me=1 / trellis=1 / 8x8dct=1 / cqm=0 / deadzone=21,11 / fast_pskip=0 / chroma_qp_offset=-3 / threads=12 / sliced_threads=0 / nr=0 / decimate=0 / interlaced=0 / constrained_intra=0 / bframes=3 / b_pyramid=2 / b_adapt=1 / b_bias=0 / direct=1 / weightb=1 / open_gop=0 / weightp=2 / keyint=250 / keyint_min=23 / scenecut=40 / intra_refresh=0 / rc_lookahead=40 / rc=2pass / mbtree=1 / bitrate=9123 / ratetol=1.0 / qcomp=0.60 / qpmin=10 / qpmax=51 / qpstep=4 / cplxblur=20.0 / qblur=0.5 / ip_ratio=1.40 / aq=2:1.00

Language : English

Default : Yes

Forced : No

Audio

ID : 2

Format : DTS

Format/Info : Digital Theater Systems

Mode : 16

Format settings, Endianness : Big

Codec ID : A_DTS

Duration : 1h 28mn

Bit rate mode : Constant

Bit rate : 1 509 Kbps

Channel(s) : 6 channels

Channel positions : Front: L C R, Side: L R, LFE

Sampling rate : 48.0 KHz

Bit depth : 16 bits

Compression mode : Lossy

Stream size : 953 MiB (14%)

Language : English

Default : Yes

Forced : No

Text

ID : 3

Format : UTF-8

Codec ID : S_TEXT/UTF8

Codec ID/Info : UTF-8 Plain Text

Language : English

Default : No

Forced : No

《罗斯玛丽的杀手》剧照-1

  温馨提示:您正在浏览的"《罗斯玛丽的杀手》BT种子下载"的剧情介绍来自于[www.92np.com-就爱那片儿],如果您喜欢本站,请推荐给您的朋友,谢谢您的支持! 最后更新:2015年08月30日

罗斯玛丽的杀手电影下载:

提示:由于该资源受到用户投诉或版权方要求,已经停止链接分享

罗斯玛丽的杀手电影评论

更多精彩电影