当前位置:
首页 » 动作片 » 夺命深渊

夺命深渊_3D惊天洞地_潜行深渊_洞穴_圣地Sanctum.2011.1080p.BluRay.x264.DTS-FGT12.82GB

夺命深渊_3D惊天洞地_潜行深渊_洞穴_圣地 Sanctum.2011.1080p.BluRay.x264.DTS-FGT 12.82GB

演员:瑞斯·维克菲尔德 艾莉森·克拉特切莉 Alice Parkinson Dan Wyllie Christopher Baker 理查德·劳斯伯格 艾恩·格拉法德

导演: 阿里斯特·格里尔森 地区: 美国,澳大利亚集数: 0集年代: 2011时间: 108分钟豆瓣评分: 7.3

◎译 名 夺命深渊/3D惊天洞地(台)/潜行深渊(港)/洞穴/圣地

◎片 名 Sanctum

◎年 代 2011

◎国 家 美国/澳大利亚

◎类 别 剧情/动作/惊悚/冒险

◎语 言 英语

◎上映日期 2011-02-04(美国)/2011-09-09(中国大陆)

◎IMDb评分 5.9/10 from 44,723 users

◎豆瓣评分 7.3/10 from 25,402 users

◎片 长 108分钟

◎导 演 阿里斯特·格里尔森 Alister Grierson

◎主 演 瑞斯·维克菲尔德 Rhys Wakefield

艾莉森·克拉特切莉 Allison Cratchley

Alice Parkinson

Dan Wyllie

Christopher Baker

理查德·劳斯伯格 Richard Roxburgh

艾恩·格拉法德 Ioan Gruffudd

夺命深渊剧情介绍:

  在巴布亚新几内亚某地一个人迹罕见的原始丛林腹地,有一个号称洞穴之母的巨洞--伊萨·阿拉。腰缠万贯的探险家卡尔(Ioan Gruffudd 饰)一掷千金,雇用拥有丰富洞穴探险经验的弗兰克(Richard Roxburgh 饰)及其团队对这里进行勘查。转眼之间几个月过去,伊萨·阿拉的勘探虽然颇见成效,但进度仍显缓慢。与此同时,强烈的热带风暴即将到来,洞穴探险迫在眉睫。卡尔为此和弗兰克发生争吵,而后者孤注一掷,和早已身心疲惫的搭档茱德(Allison Cratchley 饰)潜入水中,挑战有着"魔鬼之限"之称的凶险通道。另一方面,卡尔的女友维多莉亚和弗兰克的儿子乔希也到洞中探险。殊不知灭顶之灾正在逼近--

  本片根据Andrew Wight在西澳大利亚探洞时的真实经历改编,采用《阿凡达》的3D摄像机拍摄。

Video

ID : 1

Format : AVC

Format/Info : Advanced Video Codec

Format profile : [email protected]

Format settings, CABAC : Yes

Format settings, ReFrames : 4 frames

Codec ID : V_MPEG4/ISO/AVC

Duration : 1h 48mn

Bit rate : 15.4 Mbps

Width : 1 920 pixels

Height : 1 080 pixels

Display aspect ratio : 16:9

Frame rate mode : Constant

Frame rate : 23.976 fps

Color space : YUV

Chroma subsampling : 4:2:0

Bit depth : 8 bits

Scan type : Progressive

Bits/(Pixel*Frame) : 0.309

Stream size : 11.4 GiB (89%)

Writing library : x264 core 114 r1913 5fd3dce

Encoding settings : cabac=1 / ref=4 / deblock=1:-3:-3 / analyse=0x3:0x133 / me=umh / subme=10 / psy=1 / psy_rd=1.05:0.10 / mixed_ref=1 / me_range=32 / chroma_me=1 / trellis=2 / 8x8dct=1 / cqm=0 / deadzone=21,11 / fast_pskip=1 / chroma_qp_offset=-3 / threads=9 / sliced_threads=0 / nr=0 / decimate=1 / interlaced=0 / constrained_intra=0 / bframes=6 / b_pyramid=2 / b_adapt=2 / b_bias=0 / direct=3 / weightb=1 / open_gop=0 / weightp=2 / keyint=250 / keyint_min=23 / scenecut=40 / intra_refresh=0 / rc_lookahead=60 / rc=2pass / mbtree=1 / bitrate=15359 / ratetol=1.0 / qcomp=0.70 / qpmin=1 / qpmax=63 / qpstep=4 / cplxblur=20.0 / qblur=0.5 / vbv_maxrate=50000 / vbv_bufsize=62500 / nal_hrd=none / ip_ratio=1.40 / aq=1:0.80

Language : English

Default : Yes

Forced : No

Audio

ID : 2

Format : DTS

Format/Info : Digital Theater Systems

Mode : 16

Format settings, Endianness : Big

Codec ID : A_DTS

Duration : 1h 48mn

Bit rate mode : Constant

Bit rate : 1 509 Kbps

Channel(s) : 6 channels

Channel positions : Front: L C R, Side: L R, LFE

Sampling rate : 48.0 KHz

Bit depth : 16 bits

Compression mode : Lossy

Delay relative to video : 11ms

Stream size : 1.15 GiB (9%)

Language : English

Default : Yes

Forced : No

《夺命深渊》海报

  温馨提示:您正在浏览的"《夺命深渊》BT种子下载"的剧情介绍来自于[www.92np.com-就爱那片儿],如果您喜欢本站,请推荐给您的朋友,谢谢您的支持! 最后更新:2015年09月02日

夺命深渊电影下载:

提示:由于该资源受到用户投诉或版权方要求,已经停止链接分享

夺命深渊电影评论

更多精彩电影