当前位置:
首页 » 动作片 » 摇滚黑帮

摇滚黑帮_摇滚帮RocknRolla.2008.1080p.BluRay.x264.DTS-FGT7.77GB

摇滚黑帮_摇滚帮 RocknRolla.2008.1080p.BluRay.x264.DTS-FGT 7.77GB

演员:杰拉德·巴特勒 汤姆·威尔金森 桑迪·牛顿 马克·斯特朗 伊德瑞斯·艾尔巴 汤姆·哈迪 托比·凯贝尔

导演: 盖·里奇 地区: 英国集数: 0集年代: 2008时间: 114分钟豆瓣评分: 7.5

《摇滚黑帮》海报

◎译 名 摇滚黑帮/摇滚帮

◎片 名 RocknRolla

◎年 代 2008

◎国 家 美国/英国

◎类 别 动作/犯罪/惊悚

◎语 言 英语/俄语

◎上映日期 2008-09-05(英国)

◎IMDb评分 7.3/10 from 179,766 users

◎豆瓣评分 7.5/10 from 24,195 users

◎片 长 114 分钟

◎导 演 盖·里奇 Guy Ritchie

◎主 演 杰拉德·巴特勒 Gerard Butler

汤姆·威尔金森 Tom Wilkinson

桑迪·牛顿 Thandie Newton

马克·斯特朗 Mark Strong

伊德瑞斯·艾尔巴 Idris Elba

汤姆·哈迪 Tom Hardy

托比·凯贝尔 Toby Kebbell

摇滚黑帮剧情介绍:

  莱尼(汤姆?威尔金森 Tom Wilkinson 饰)是伦敦黑帮的头目,他手下有个得力干将艾奇(马克?斯特朗 Mark Strong 饰)。莱尼曾经做套逼小流氓头二(杰拉德?巴特勒 Gerard Butler 饰)还债。结果,头二凭借情人史黛拉(桑迪?牛顿 Thandie Newton 饰)提供的情报,成功打劫,抢得巨款,还清了债务,并且一发而不可收拾--

  莱尼买通议员想进军房地产市场。为了重金担保,他从俄罗斯黑帮头目尤里(卡瑞尔?罗登 Karel Roden 饰)手中借来了一副名画。然而,这幅名画却不翼而飞。于是,一群人卷入了这场寻找名画的闹剧中,其中不乏有莱尼失散多年的儿子,盗卖皮草的毛贼,打不死的保镖,同性恋的律师等等。最后,在名画事件水落石出之时,黑帮最大告密者的身份也被揭穿--

Video

ID : 1

Format : AVC

Format/Info : Advanced Video Codec

Format profile : [email protected]

Format settings, CABAC : Yes

Format settings, ReFrames : 5 frames

Codec ID : V_MPEG4/ISO/AVC

Duration : 1h 54mn

Bit rate : 8 219 Kbps

Width : 1 920 pixels

Height : 800 pixels

Display aspect ratio : 2.40:1

Frame rate mode : Constant

Frame rate : 23.976 fps

Color space : YUV

Chroma subsampling : 4:2:0

Bit depth : 8 bits

Scan type : Progressive

Bits/(Pixel*Frame) : 0.223

Stream size : 6.41 GiB (82%)

Writing library : x264 core 66 r1095M 8ae672f

Encoding settings : cabac=1 / ref=5 / deblock=1:-3:-3 / analyse=0x3:0x113 / me=umh / subme=9 / psy_rd=0.9:0.0 / mixed_ref=1 / me_range=32 / chroma_me=1 / trellis=2 / 8x8dct=1 / cqm=0 / deadzone=21,11 / chroma_qp_offset=-2 / threads=6 / nr=0 / decimate=1 / mbaff=0 / bframes=4 / b_pyramid=1 / b_adapt=2 / b_bias=0 / direct=3 / wpredb=1 / keyint=250 / keyint_min=25 / scenecut=40(pre) / rc=2pass / bitrate=8219 / ratetol=1.0 / qcomp=0.60 / qpmin=10 / qpmax=51 / qpstep=4 / cplxblur=20.0 / qblur=0.5 / ip_ratio=1.40 / pb_ratio=1.30 / aq=1:0.60

Language : English

Default : Yes

Forced : No

Audio

ID : 2

Format : DTS

Format/Info : Digital Theater Systems

Mode : 16

Format settings, Endianness : Big

Codec ID : A_DTS

Duration : 1h 54mn

Bit rate mode : Constant

Bit rate : 1 510 Kbps

Channel(s) : 6 channels

Channel positions : Front: L C R, Side: L R, LFE

Sampling rate : 48.0 KHz

Bit depth : 24 bits

Compression mode : Lossy

Stream size : 1.21 GiB (16%)

Title : DTS, 5.1ch 1536 kbps

Language : English

Default : No

Forced : No

Text

ID : 3

Format : UTF-8

Codec ID : S_TEXT/UTF8

Codec ID/Info : UTF-8 Plain Text

Language : English

Default : No

Forced : No

《摇滚黑帮》剧照-1

  温馨提示:您正在浏览的"《摇滚黑帮》BT种子下载"的剧情介绍来自于[www.92np.com-就爱那片儿],如果您喜欢本站,请推荐给您的朋友,谢谢您的支持! 最后更新:2015年09月02日

摇滚黑帮电影下载:

提示:由于该资源受到用户投诉或版权方要求,已经停止链接分享

摇滚黑帮电影评论

更多精彩电影