当前位置:
首页 » 惊悚片 » 折磨

折磨The.Tortured.2010.1080p.BluRay.x264.DTS-FGT6.56GB

折磨 The.Tortured.2010.1080p.BluRay.x264.DTS-FGT 6.56GB

演员:杰西·麦特卡尔菲 埃丽卡·克里斯滕森

导演: Robert Lieberman 地区: 美国 / 加拿大集数: 0集年代: 2010时间: 79分钟豆瓣评分: 6.0

《折磨》海报

◎译 名 折磨

◎片 名 The Tortured

◎年 代 2010

◎国 家 美国/加拿大

◎类 别 惊悚/恐怖

◎语 言 英语

◎上映日期 2010

◎IMDb评分 5.5/10 from 5,308 users

◎豆瓣评分 6.0/10 from 1,053 users

◎片 长 79分钟

◎导 演 Robert Lieberman

◎主 演 杰西·麦特卡尔菲 Jesse Metcalfe

埃丽卡·克里斯滕森 Erika Christensen

折磨剧情介绍:

  生活在郊外别墅区的医生克莱格·兰德利(杰西·麦特卡尔菲 Jesse Metcalfe 饰)和妻子伊莉丝(埃丽卡·克里斯滕森 Erika Christensen 饰)过着优哉游哉的中产生活,他们有一个6岁的儿子本杰明,一家三口的生活美满幸福。但是这天堂般的美好被名叫约翰·卡兹洛夫斯基(比尔·莫斯利 Bill Moseley 饰)的男人打破,他绑架了本杰明并将之残忍杀害。突如其来的惨剧令兰德利夫妇无法承受,而法庭的非死刑判决更令他们几近崩溃。

  极度悲痛之下,夫妻俩决定向约翰展开复仇。他们劫持了监狱的押运车,并且将约翰带回一幢空房子内。为了让这个恶魔体会到本杰明所经历的痛苦,克莱格和伊莉丝对其进行了长久的地狱般的折磨--

Video

ID : 1

Format : AVC

Format/Info : Advanced Video Codec

Format profile : [email protected]

Format settings, CABAC : Yes

Format settings, ReFrames : 4 frames

Codec ID : V_MPEG4/ISO/AVC

Duration : 1h 21mn

Bit rate : 10.7 Mbps

Width : 1 920 pixels

Height : 1 080 pixels

Display aspect ratio : 16:9

Frame rate mode : Constant

Frame rate : 23.976 fps

Color space : YUV

Chroma subsampling : 4:2:0

Bit depth : 8 bits

Scan type : Progressive

Bits/(Pixel*Frame) : 0.216

Stream size : 5.99 GiB (91%)

Writing library : x264 core 107 r1745 4785e8e

Encoding settings : cabac=1 / ref=4 / deblock=1:0:0 / analyse=0x3:0x133 / me=umh / subme=8 / psy=1 / psy_rd=1.00:0.00 / mixed_ref=1 / me_range=16 / chroma_me=1 / trellis=1 / 8x8dct=1 / cqm=0 / deadzone=21,11 / fast_pskip=0 / chroma_qp_offset=-2 / threads=12 / sliced_threads=0 / nr=0 / decimate=1 / interlaced=0 / constrained_intra=0 / bframes=3 / b_pyramid=2 / b_adapt=1 / b_bias=0 / direct=1 / weightb=1 / open_gop=0 / weightp=2 / keyint=250 / keyint_min=23 / scenecut=40 / intra_refresh=0 / rc_lookahead=40 / rc=2pass / mbtree=1 / bitrate=10722 / ratetol=1.0 / qcomp=0.60 / qpmin=10 / qpmax=51 / qpstep=4 / cplxblur=20.0 / qblur=0.5 / ip_ratio=1.40 / aq=1:1.00

Language : English

Default : Yes

Forced : No

Audio

ID : 2

Format : DTS

Format/Info : Digital Theater Systems

Mode : 16

Format settings, Endianness : Big

Codec ID : A_DTS

Duration : 1h 21mn

Bit rate mode : Constant

Bit rate : 768 Kbps

Channel(s) : 6 channels

Channel positions : Front: L C R, Side: L R, LFE

Sampling rate : 48.0 KHz

Bit depth : 24 bits

Compression mode : Lossy

Stream size : 449 MiB (7%)

Language : English

Default : Yes

Forced : No

Text

ID : 3

Format : UTF-8

Codec ID : S_TEXT/UTF8

Codec ID/Info : UTF-8 Plain Text

Language : English

Default : Yes

Forced : No

《折磨》剧照-1

  温馨提示:您正在浏览的"《折磨》BT种子下载"的剧情介绍来自于[www.92np.com-就爱那片儿],如果您喜欢本站,请推荐给您的朋友,谢谢您的支持! 最后更新:2015年09月02日

折磨电影下载:

提示:由于该资源受到用户投诉或版权方要求,已经停止链接分享

折磨电影评论

更多精彩电影