当前位置:
首页 » 动作片 » 小马

小马The.Colt.2005.1080p.BluRay.x264.DD5.1-FGT6.56GBT

小马 The.Colt.2005.1080p.BluRay.x264.DD5.1-FGT 6.56GBT

演员:Ryan Merriman William MacDonald

导演: Yelena Lanskaya 地区: 美国集数: 0集年代: 2005时间: 0分钟豆瓣评分: 0.0

《小马》海报

◎译 名 小马

◎片 名 The Colt

◎年 代 2005

◎国 家 美国

◎类 别 动作/剧情/历史/战争

◎语 言 英语

◎上映日期 2005-02-06

◎IMDb评分 6.9/10 from 401 users

◎导 演 Yelena Lanskaya

◎主 演 Ryan Merriman

William MacDonald

小马剧情介绍:

During the heat of battle in the midst of the Civil War| a beguilingly innocent colt is born to Union Jim Rabb's beloved mare. Refusing the orders to shoot it| lest

it prove a hindrance| Rabb keeps the colt as a consolation in these desperate times-a symbol of hope that leads the men of the First Cavalry on a journey of

self-discovery and newfound brotherhood.

Video

ID : 1

Format : AVC

Format/Info : Advanced Video Codec

Format profile : [email protected]

Format settings, CABAC : Yes

Format settings, ReFrames : 4 frames

Codec ID : V_MPEG4/ISO/AVC

Duration : 1h 23mn

Bit rate : 10.8 Mbps

Width : 1 920 pixels

Height : 1 080 pixels

Display aspect ratio : 16:9

Frame rate mode : Constant

Frame rate : 23.976 fps

Color space : YUV

Chroma subsampling : 4:2:0

Bit depth : 8 bits

Scan type : Progressive

Bits/(Pixel*Frame) : 0.216

Stream size : 6.16 GiB (94%)

Writing library : x264 core 98 r1649 c54c47d

Encoding settings : cabac=1 / ref=4 / deblock=1:0:0 / analyse=0x3:0x133 / me=umh / subme=8 / psy=1 / psy_rd=1.00:0.00 / mixed_ref=1 / me_range=16 / chroma_me=1 / trellis=1 / 8x8dct=1 / cqm=0 / deadzone=21,11 / fast_pskip=0 / chroma_qp_offset=-2 / threads=12 / sliced_threads=0 / nr=0 / decimate=1 / interlaced=0 / constrained_intra=0 / bframes=3 / b_pyramid=2 / b_adapt=1 / b_bias=0 / direct=1 / weightb=1 / weightp=2 / keyint=250 / keyint_min=25 / scenecut=40 / intra_refresh=0 / rc_lookahead=40 / rc=2pass / mbtree=1 / bitrate=10757 / ratetol=1.0 / qcomp=0.60 / qpmin=10 / qpmax=51 / qpstep=4 / cplxblur=20.0 / qblur=0.5 / ip_ratio=1.40 / aq=1:1.00

Language : English

Default : Yes

Forced : No

Audio

ID : 2

Format : AC-3

Format/Info : Audio Coding 3

Mode extension : CM (complete main)

Format settings, Endianness : Big

Codec ID : A_AC3

Duration : 1h 23mn

Bit rate mode : Constant

Bit rate : 448 Kbps

Channel(s) : 6 channels

Channel positions : Front: L C R, Side: L R, LFE

Sampling rate : 48.0 KHz

Compression mode : Lossy

Stream size : 269 MiB (4%)

Language : English

Default : Yes

Forced : No

Menu

00:00:00.000 : en:00:00:00.000

00:03:14.694 : en:00:03:14.694

00:09:26.566 : en:00:09:26.566

00:13:35.314 : en:00:13:35.314

00:21:04.263 : en:00:21:04.263

00:26:36.094 : en:00:26:36.094

00:31:33.892 : en:00:31:33.892

00:37:01.219 : en:00:37:01.219

00:41:07.465 : en:00:41:07.465

00:50:10.007 : en:00:50:10.007

00:55:21.318 : en:00:55:21.318

01:00:43.640 : en:01:00:43.640

01:07:22.038 : en:01:07:22.038

01:11:53.809 : en:01:11:53.809

01:19:09.244 : en:01:19:09.244

《小马》剧照-1

  温馨提示:您正在浏览的"《The Colt》BT种子下载"的剧情介绍来自于[www.92np.com-就爱那片儿],如果您喜欢本站,请推荐给您的朋友,谢谢您的支持! 最后更新:2015年09月02日

小马电影下载:

提示:由于该资源受到用户投诉或版权方要求,已经停止链接分享

小马电影评论

更多精彩电影